вход на сайт

Имя пользователя :
Пароль :

Восстановление пароля Регистрация
Голубые молнии (Исаак Шмарук, драма, приключения, 1978) [DVDRip, Не требуется]
Рейтинг:
(голосов: 1)



[img]{THEME}/images/logopost.png[/img]



Голубые молнии

Год выпуска: 1978
Страна: СССР
Производство: Студия Довженко
Жанр: драма, приключения

Режиссёр: Исаак Шмарук
В ролях: Андрей Градов, Ольга Жулина, Сергей Подгорный, Виктор Бутов, Юрий Каморный, Николай Воронин

Перевод: Не требуется
Субтитры: Отсутствуют

Описание:
Юный столичный пижон, не поступив в престижный институт, оказался в армии. Более того, его призвали в десантные войска. И пришлось избалованному парню привыкать к совсем другой жизни, постигая нелегкую армейскую науку….


Дополнительно:
MediaInfo ▼Text
Общее
Полное имя :K:2. РАЗДАЧАГолубые молнииGolubie_molnii.avi
Формат :AVI
Размер :1.37 GiB
Продолжительность :01:21:22.120
Общий поток :2 406 Kbps
Библиотека кодирования :VirtualDub build 24442/release

Видео
Идентификатор :0
Формат :MPEG-4 Visual
Параметр BVOP формата :1
Параметр Qpel формата :No
Параметр GMC формата :0
Параметр Matrix формата :Default (H.263)
Идентификатор кодека :DX50
Продолжительность :1h 21mn 22s 120ms
Битрейт :2 268 Kbps
Ширина :672 pixels
Высота :336 pixels
Соотношение сторон :2.000
Частота кадров :25.000 fps
Глубина цвета :8 bits
Подвыборка цветности :4:2:0
Цветовое пространство :YUV
Тип развертки :Progressive
Бит/(Пиксели*Кадры) :0.402
Размер потока :1.29 GiB (94%)
Библиотека кодирования :DivX503b1988p

Аудио #1
Идентификатор :1
Формат :MPEG Audio
Идентификатор кодека :55
Продолжительность :01:21:22.074
Вид битрейта :Constant
Битрейт :128 Kbps
Канал(ы) :2 channels
Частота :48.0 KHz
Метод сжатия :Lossy
Размер потока :74.5 MiB (5%)Тех. данные:
Качество:DVDRip
Продолжительность:01:21:20 час

Формат: AVI
Видео кодек: DivX
Аудио кодек: MPA1L3
Видео: 672 x 336 (2.000), 25.000 fps, 2 268 Kbps, 0.402 bit/pixel
Аудио : 48.0 KHz, , 2 channels (), 128 Kbps



837496f13fbc40064dd193f18723107c8bc44902Голубые молнии (Исаак Шмарук, драма, приключения, 1978) [DVDRip, Не требуется] Голубые молнии (Исаак Шмарук, драма, приключения, 1978) [DVDRip, Не требуется] " />

Аплоадер: Админ, дата: 28-11-2012, 21:31, торрент скачан: 359 раз

Понравилась раздача? Посмотрите эти:
  • Дружок (Виктор Эйсымонт, семейный, 1958) [DVDRip, Не требуется]
  • Подранки (Николай Губенко, драма, 1976) [DVDRip, Не требуется]
  • Человек, которому везло (Константин Ершов, драма, 1978) [DVDRip, Не требует ...
  • Молодая жена (Леонид Менакер, драма, мелодрама, 1978) [DVDRip, Не требуется ...
  • До первой крови (Владимир Фокин, драма, 1989) [DVDRip, Не требуется]
  • Баламут (Владимир Роговой, драма, комедия, 1978) [DVDRip, Не требуется]
  • Левша (Сергей Овчаров, драма, комедия, 1986) [DVDRip, Не требуется]
  • Комедия ошибок (2 части из 2) (Вадим Гаузнер, комедия, 1978) [DVDRip, Не тр ...
  • Капитанская дочка (Владимир Каплуновский, драма, 1958) [DVDRip, Не требуетс ...
  • Фантазеры (Исаак Магитон, И. Сафарова, детский, 1965) [DVDRip, Не требуется ...
  • Чайка (Юлий Карасик, драма, 1972) [DVDRip, Не требуется]
  • Печники (Виктор Храмов, драма, 1982) [DVDRip, Не требуется]
  • Подарок чёрного колдуна (Борис Рыцарев, фэнтези, приключения, семейный, 197 ...
  • Степь (2 части из 2) (Сергей Бондарчук, драма, история, 1977) [DVDRip, Не т ...
  • Уходя - уходи (Виктор Трегубович, комедия, 1978) [DVDRip, Не требуется]
  • Сибириада (4 части из 4) (Андрей Кончаловский, драма, военный, история, 197 ...
  • Путь корабля (Юрий Тарич, драма, приключения, 1935) [DVDRip, Не требуется]
  • Старомодная комедия (Эра Савельева, Татьяна Березанцева, мелодрама, 1978) [ ...
  • Подпольный обком действует (4 части из 4) (Анатолий Буковский, военный, 197 ...
  • Пока безумствует мечта (Юрий Горковенко, комедия, приключения, 1978) [DVDRi ...
  • Золотая речка (Вениамин Дорман, приключения, 1977) [DVDRip, Не требуется]
  • Александр Попов (Виктор Эйсымонт, Герберт Раппапорт, драма, биография, 1949 ...
  • Мичман Панин (Михаил Швейцер, приключения, военный, история, 1960) [DVDRip, ...
  • Целуются зори (Сергей Никоненко, комедия, 1978) [DVDRip, Не требуется]
  • За облаками – небо (Юрий Егоров, драма, 1973) [DVDRip, Не требуется]
  • Информация
    Посетители, находящиеся в группе Гости, не могут оставлять комментарии к данной публикации.