вход на сайт

Имя пользователя :
Пароль :

Восстановление пароля Регистрация
Дядюшкин сон (2 части из2) (Александр Орлов, драма, комедия, 1981) [DVDRip, Не требуется]
Рейтинг:
(голосов: 1)



[img]{THEME}/images/logopost.png[/img]



Дядюшкин сон (2 части из2)

Год выпуска: 1981
Страна: СССР
Производство: Гостелерадио
Жанр: драма, комедия

Режиссёр: Александр Орлов
В ролях: Марк Прудкин, Елена Майорова, Наталья Тенякова, Игорь Ясулович, Светлана Немоляева, Людмила Иванова, Лия Ахеджакова, Алла Будницкая, Тамара Дегтярева, Валерий Шальных

Перевод: Не требуется
Субтитры: Отсутствуют

Описание:
Известная история о том, как используя слабоумие старого князя, «первая дама в Мордасове» Марья Александровна пытается выдать за него свою дочь.


Дополнительно:
MediaInfo ▼Text
"1 часть" ▼Общее
Полное имя :L:3.РаздачаДядюшкин сонdjadjushkin_sondjadjushkin_son_s01.avi
Формат :AVI
Размер :1.05 GiB
Продолжительность :01:46:42.840
Общий поток :1 405 Kbps
Программа кодирования :VirtualDubModRus 1.5.10.2 (build 2542/release)
Библиотека кодирования :VirtualDubMod build 2542/release

Видео
Идентификатор :0
Формат :MPEG-4 Visual
Параметр BVOP формата :1
Параметр Qpel формата :No
Параметр GMC формата :0
Параметр Matrix формата :Default (H.263)
Идентификатор кодека :DX50
Продолжительность :1h 46mn 42s 840ms
Битрейт :1 203 Kbps
Ширина :656 pixels
Высота :496 pixels
Соотношение сторон :1.323
Частота кадров :25.000 fps
Глубина цвета :8 bits
Подвыборка цветности :4:2:0
Цветовое пространство :YUV
Тип развертки :Progressive
Бит/(Пиксели*Кадры) :0.148
Размер потока :919 MiB (86%)
Библиотека кодирования :DivX503b2676p

Аудио #1
Идентификатор :1
Формат :MPEG Audio
Идентификатор кодека :55
Продолжительность :01:46:42.840
Вид битрейта :Constant
Битрейт :192 Kbps
Канал(ы) :2 channels
Частота :48.0 KHz
Метод сжатия :Lossy
Размер потока :147 MiB (14%)

"2 часть" ▼Общее
Полное имя :L:3.РаздачаДядюшкин сонdjadjushkin_sondjadjushkin_son_s02.avi
Формат :AVI
Размер
570969dab3925739399337cc85a9e4d48ba5ae60Дядюшкин сон (2 части из2) (Александр Орлов, драма, комедия, 1981) [DVDRip, Не требуется] Дядюшкин сон (2 части из2) (Александр Орлов, драма, комедия, 1981) [DVDRip, Не требуется] " />[/center]

Аплоадер: Админ, дата: 27-11-2012, 21:54, торрент скачан: 359 раз

Понравилась раздача? Посмотрите эти:
  • Дни хирурга Мишкина (3 части из 3) (Вадим Зобин, драма, 1967) [DVDRip, Не т ...
  • Будни и праздники Серафимы Глюкиной (2 части из 2) (Ростислав Горяев, драма ...
  • Агония (2 части из 2) (Элем Климов, драма, биография, история, 1981) [DVDRi ...
  • Отпуск за свой счет (2 части из 2) (Виктор Титов, мелодрама, комедия, 1981) ...
  • Мир дому твоему (2 части из 2) (Константин Райкин, Аркадий Райкин, Марк Орл ...
  • Месье Ленуар, который... (2 части из 2) (Александр Орлов, телеспектакль, др ...
  • Люди и манекены (4 части из 4) (Виктор Храмов, Аркадий Райкин, комедия, 197 ...
  • Дон Сезар де Базан (2 части из 2) (Ян Фрид, мюзикл, комедия, 1989) [DVDRip, ...
  • Поднятая целина (3 части из 3) (Александр Иванов, драма, 1959) [DVDRip, Не ...
  • Вся королевская рать (3 части из 3) (Наум Ардашников, Александр Гуткович, д ...
  • Карнавал (2 части из 2) (Татьяна Лиознова, мюзикл, комедия, 1981) [DVDRip, ...
  • Степь (2 части из 2) (Сергей Бондарчук, драма, история, 1977) [DVDRip, Не т ...
  • Тайна Эдвина Друда (4 части из 4) (Александр Орлов, драма, 1980) [DVDRip, Н ...
  • У меня есть лев (2 части из 2) (Константин Бромберг, драма, комедия, приклю ...
  • Руслан и Людмила (2 части из 2) (Александр Птушко, фэнтези, детектив, 1972) ...
  • Сибириада (4 части из 4) (Андрей Кончаловский, драма, военный, история, 197 ...
  • Ханума (2 части из 2) (Георгий Товстоногов, мюзикл, комедия, 1978) [DVDRip, ...
  • Приморский бульвар (2 части из 2) (Александр Полынников, мюзикл, комедия, 1 ...
  • Почти смешная история (2 части из 2) (Петр Фоменко, мелодрама, комедия, 197 ...
  • Тихий Дон (3 части из 3) (Сергей Герасимов, драма, военный, 1957) [DVDRip, ...
  • В лесах под Ковелем (3 части из 3) (Юрий Тупицкий, военный, история, 1984) ...
  • Гений (2 части из 2) (Виктор Сергеев, Комедия, криминал, 1991) [DVDRip, Не ...
  • Дядюшкин сон (Константин Воинов, драма, 1966) [DVDRip, Не требуется]
  • Моонзунд (2 части из 2) (Александр Муратов, драма, мелодрама, военный, исто ...
  • Неизвестный солдат (3 части из 3) (Григорий Аронов, Вадим Зобин, драма, 198 ...
  • Информация
    Посетители, находящиеся в группе Гости, не могут оставлять комментарии к данной публикации.