вход на сайт

Имя пользователя :
Пароль :

Восстановление пароля Регистрация
Дерсу Узала (Агаси Бабаян, приключения, 1961) [DVDRip, Не требуется]
Рейтинг:
(голосов: 1)



[img]{THEME}/images/logopost.png[/img]



Дерсу Узала

Год выпуска: 1961
Страна: СССР
Производство: Центрнаучфильм
Жанр: приключения

Режиссёр: Агаси Бабаян
В ролях: Адольф Шестаков, Касым Жакибаев, Александр Баранов, Лев Лобов, Спиридон Григорьев, А. Евстифьев, Михаил Медведев, Петр Любешкин, Николай Хрящиков, Николай Гладков

Перевод: Не требуется
Субтитры: Отсутствуют

Описание:
Фильм снят по мотивам одноименной книги русского путешественника В. К. Арсеньева, посвященной одному из походов автора по Уссурийскому краю. В центре картины — образ замечательного охотника и следопыта гольда Дерсу Узала.


Дополнительно:
MediaInfo ▼Text
Общее
Полное имя :L:3.РаздачаЗвероловыДерсу Узалаdersu_uzala.avi
Формат :AVI
Размер :1.36 GiB
Продолжительность :01:21:03.960
Общий поток :2 411 Kbps

Видео
Идентификатор :0
Формат :MPEG-4 Visual
Профиль формата :[email protected]
Параметр BVOP формата :No
Параметр Qpel формата :No
Параметр GMC формата :0
Параметр Matrix формата :Default (H.263)
Идентификатор кодека :DIVX
Продолжительность :1h 21mn 3s 960ms
Битрейт :2 270 Kbps
Ширина :640 pixels
Высота :480 pixels
Соотношение сторон :1.333
Частота кадров :25.000 fps
Глубина цвета :8 bits
Подвыборка цветности :4:2:0
Цветовое пространство :YUV
Тип развертки :Progressive
Бит/(Пиксели*Кадры) :0.296
Размер потока :1.29 GiB (94%)
Библиотека кодирования :avc2.0.11.1110

Аудио #1
Идентификатор :1
Формат :MPEG Audio
Идентификатор кодека :55
Продолжительность :01:21:03.888
Вид битрейта :Constant
Битрейт :128 Kbps
Канал(ы) :2 channels
Частота :48.0 KHz
Метод сжатия :Lossy
Размер потока :74.2 MiB (5%)Тех. данные:
Качество:DVDRip
Продолжительность:01:21:00 час

Формат: AVI
Видео кодек: avc2
Аудио кодек: MPA1L3
Видео: 640 x 480 (4:3), 25.000 fps, 2 270 Kbps, 0.296 bit/pixel
Аудио : 48.0 KHz, , 2 channels (), 128 Kbps



342b737093b3814ae88b44501619ec12d8df7652Дерсу Узала (Агаси Бабаян, приключения, 1961) [DVDRip, Не требуется] Дерсу Узала (Агаси Бабаян, приключения, 1961) [DVDRip, Не требуется] " />

Аплоадер: Админ, дата: 27-11-2012, 21:49, торрент скачан: 359 раз

Понравилась раздача? Посмотрите эти:
  • Аленка (Борис Барнет, комедия, 1961) [DVDRip, Не требуется]
  • Евдокия (Полная реставрация) (Татьяна Лиознова, драма, 1961) [DVDRip, Не тр ...
  • Человек идёт за солнцем (Михаил Калик, драма, 1961) [DVDRip, Не требуется]
  • Друг мой, Колька!.. (Александр Митта, Алексей Салтыков, драма, 1961) [DVDRi ...
  • Князь Игорь (Роман Тихомиров, мюзикл, приключения, 1969) [DVDRip, Не требуе ...
  • Дерсу Узала / Dersu Uzala [Акира Куросава, 1975 г., драма, DVDRip]
  • Рысь выходит на тропу (Агаси Бабаян, комедия, 1983) [DVDRip, Не требуется]
  • Тропой бескорыстной любви (Агаси Бабаян, драма, 1972) [DVDRip, Не требуется ...
  • Пиковая Дама (Роман Тихомиров, мюзикл, драма, 1961) [DVDRip, Не требуется]
  • Мульт-Салют. 7 ч. из 30: Приключения Буратино/Чиполлино (Иван Иванов-Вано, ...
  • Совершенно серьезно (Леонид Гайдай, Эльдар Рязанов, Владимир Семаков, коме ...
  • Садко (Александр Птушко, фэнтези, приключения, 1952) [DVDRip, Не требуется] ...
  • Дерсу Узала ( Агаси Бабаян,приключения,1961)[DVDRip,оригинал]
  • Тропой бескорыстной любви (Агаси Бабаян, Приключения, 1971) [DVDRip, не тр ...
  • Рысь выходит на тропу (Агаси Бабаян, Киноповесть, 1982) [DVDRip, не требует ...
  • Рысь возвращается (Агаси Бабаян, фильм о животных, приключения, 1986) [TVRi ...
  • Таинственный остров / Остров приключений / Mysterious Island (Сай Эндфилд, ...
  • Гибель «Орла» (Василий Журавлев, приключения, 1940) [DVDRip, Не требуется]
  • Звероловы (Глеб Нифонтов, приключения, 1959) [DVDRip, Не требуется]
  • Приключения Кроша (Генрих Оганесян, семейный, 1961) [DVDRip, Не требуется]
  • Информация
    Посетители, находящиеся в группе Гости, не могут оставлять комментарии к данной публикации.