вход на сайт

Имя пользователя :
Пароль :

Восстановление пароля Регистрация
Звероловы (Глеб Нифонтов, приключения, 1959) [DVDRip, Не требуется]
Рейтинг:
(голосов: 1)



[img]{THEME}/images/logopost.png[/img]



Звероловы

Год выпуска: 1959
Страна: СССР
Производство: Моснаучфильм
Жанр: приключения

Режиссёр: Глеб Нифонтов
В ролях: Иван Савкин, Раднэр Муратов, К. Албанов, Борис Ситко, Иван Коваль-Самборский, Григорий Михайлов, Константин Немоляев, Петр Любешкин, Даниил Нетребин, Владимир Борискин

Перевод: Не требуется
Субтитры: Отсутствуют

Описание:
Молодой охотовед Егоров мечтает поймать тигра. Путешествуя по отдаленным уголкам страны, герой постигает нелегкую профессию зверолова и, в конце концов, добивается успеха.


Дополнительно:
MediaInfo ▼Text
Общее
Полное имя :L:3.РаздачаЗвероловыzverolov.avi
Формат :AVI
Размер :1.38 GiB
Продолжительность :01:17:48.680
Общий поток :2 539 Kbps

Видео
Идентификатор :0
Формат :MPEG-4 Visual
Профиль формата :[email protected]
Параметр BVOP формата :No
Параметр Qpel формата :No
Параметр GMC формата :0
Параметр Matrix формата :Default (H.263)
Идентификатор кодека :DIVX
Продолжительность :1h 17mn 48s 680ms
Битрейт :2 398 Kbps
Ширина :640 pixels
Высота :480 pixels
Соотношение сторон :1.333
Частота кадров :25.000 fps
Глубина цвета :8 bits
Подвыборка цветности :4:2:0
Цветовое пространство :YUV
Тип развертки :Progressive
Бит/(Пиксели*Кадры) :0.312
Размер потока :1.30 GiB (94%)
Библиотека кодирования :avc2.0.11.1110

Аудио #1
Идентификатор :1
Формат :MPEG Audio
Идентификатор кодека :55
Продолжительность :01:17:48.600
Вид битрейта :Constant
Битрейт :128 Kbps
Канал(ы) :2 channels
Частота :48.0 KHz
Метод сжатия :Lossy
Размер потока :71.2 MiB (5%)Тех. данные:
Качество:DVDRip
Продолжительность:01:17:40 час

Формат: AVI
Видео кодек: avc2
Аудио кодек: MPA1L3
Видео: 640 x 480 (4:3), 25.000 fps, 2 398 Kbps, 0.312 bit/pixel
Аудио : 48.0 KHz, , 2 channels (), 128 Kbps



90c393a9af08f9a484d5e05a8664bef54c2633d7Звероловы (Глеб Нифонтов, приключения, 1959) [DVDRip, Не требуется] Звероловы (Глеб Нифонтов, приключения, 1959) [DVDRip, Не требуется] " />

Аплоадер: Админ, дата: 27-11-2012, 21:41, торрент скачан: 359 раз

Понравилась раздача? Посмотрите эти:
  • В огне брода нет (Глеб Панфилов, драма, военный, 1968) [DVDRip, Не требуетс ...
  • О чем шумит река (Григорий Мелик-Авакян, драма, 1959) [DVDRip, Не требуется ...
  • Начало (Глеб Панфилов, мелодрама, комедия, 1970) [DVDRip, Не требуется]
  • Зимородок (Вячеслав Никифоров, военный, 1972) [DVDRip, Не требуется]
  • Зеленые цепочки (Григорий Аронов, приключения, 1970) [DVDRip, Не требуется] ...
  • Дама с собачкой (Иосиф Хейфиц, драма, мелодрама, 1959) [DVDRip, Не требуетс ...
  • Рыжик (Илья Фрэз, приключения, семейный, 1960) [DVDRip, Не требуется]
  • Сапоги (Владимир Немоляев, короткометражка, драма, комедия, 1957) [DVDRip, ...
  • Пакет (Владимир Назаров, комедия, приключения, семейный, 1965) [DVDRip, Не ...
  • Баллада о солдате (Григорий Чухрай, драма, мелодрама, военный, 1959) [DVDRi ...
  • Ссора в Лукашах (Максим Руф, мюзикл, комедия, 1959) [DVDrip, Не требуется]
  • Оптимистическая трагедия (Самсон Самсонов, драма, военный, история, 1963) [ ...
  • Князь Игорь (Роман Тихомиров, мюзикл, приключения, 1969) [DVDRip, Не требуе ...
  • Мульт-Салют. 7 ч. из 30: Приключения Буратино/Чиполлино (Иван Иванов-Вано, ...
  • Неподдающиеся (Юрий Чулюкин, комедия, 1959) [DVDRip, Не требуется]
  • Танкер «Дербент» (Александр Файнциммер, приключения, 1940) [DVDRip, Не треб ...
  • Путь корабля (Юрий Тарич, драма, приключения, 1935) [DVDRip, Не требуется]
  • Солдатка (Владимир Денисенко, драма, 1959) [DVDRip, Не требуется]
  • Судьба человека (Сергей Бондарчук, драма, военный, биография, 1959) [DVDRip ...
  • 01-99 (Амаси Мартиросян, короткометражка, комедия, 1959) [DVDRip, Не требуе ...
  • Болотные солдаты (Александр Мачерет, драма, военный, 1938) [DVDRip, Не треб ...
  • Чудак-человек (Владимир Кочетов, комедия, 1962) [DVDRip, Не требуется]
  • Гибель «Орла» (Василий Журавлев, приключения, 1940) [DVDRip, Не требуется]
  • Дерсу Узала (Агаси Бабаян, приключения, 1961) [DVDRip, Не требуется]
  • Зеленый фургон (Генрих Габай, боевик, приключения, 1959) [DVDRip, Не требуе ...
  • Информация
    Посетители, находящиеся в группе Гости, не могут оставлять комментарии к данной публикации.