вход на сайт

Имя пользователя :
Пароль :

Восстановление пароля Регистрация
Два капитана (Владимир Венгеров, приключения, 1955) [ТVRip, Не требуется]
Рейтинг:
(голосов: 1)



[img]{THEME}/images/logopost.png[/img]



Два капитана

Год выпуска: 1955
Страна: СССР
Производство: Ленфильм
Жанр: приключения

Режиссёр: Владимир Венгеров
В ролях: Александр Михайлов, Ольга Заботкина, Анатолий Адоскин, Евгений Лебедев, Борис Беляев, Эдуард Кузнецов, Борис Аракелов, Инна Кондратьева, Татьяна Пельтцер, Елена Максимова

Перевод: Не требуется
Субтитры: Отсутствуют

Описание:
«Бороться искать, найти и не сдаваться» — эта романтическая клятва, данная в детстве Саней Григорьевым, долгие годы вела его к осуществелению заветной мечты: стать полярным летчиком и отыскать следы пропавшей арктической экспедиции капитана Татаринова.


Дополнительно:
MediaInfo ▼Text
Общее
Полное имя :L:3.РаздачаДва капитанаDva_kapitana.avi
Формат :AVI
Размер :1.60 GiB
Продолжительность :01:31:20.120
Общий поток :2 504 Kbps
Программа кодирования :VirtualDubMod 1.5.10.1 (build 2439/release)
Библиотека кодирования :VirtualDubMod build 2439/release

Видео
Идентификатор :0
Формат :MPEG-4 Visual
Параметр BVOP формата :1
Параметр Qpel формата :No
Параметр GMC формата :0
Параметр Matrix формата :Default (H.263)
Идентификатор кодека :DX50
Продолжительность :1h 31mn 20s 120ms
Битрейт :2 302 Kbps
Ширина :640 pixels
Высота :480 pixels
Соотношение сторон :1.333
Частота кадров :25.000 fps
Глубина цвета :8 bits
Подвыборка цветности :4:2:0
Цветовое пространство :YUV
Тип развертки :Progressive
Бит/(Пиксели*Кадры) :0.300
Размер потока :1.47 GiB (92%)
Библиотека кодирования :DivX503b1031p

Аудио #1
Идентификатор :1
Формат :MPEG Audio
Идентификатор кодека :55
Продолжительность :01:31:20.110
Вид битрейта :Constant
Битрейт :192 Kbps
Канал(ы) :2 channels
Частота :48.0 KHz
Метод сжатия :Lossy
Размер потока :125 MiB (8%)Тех. данные:
Качество:DVDRipТVRip
Продолжительность:01:31:20 час

Формат: AVI
Видео кодек: DivX
Аудио кодек: MPA1L3
Видео: 640 x 480 (4:3), 25.000 fps, 2 302 Kbps, 0.300 bit/pixel
Аудио : 48.0 KHz, , 2 channels ()
02030cca19c18fe56081de7e56b84d633dea22ffДва капитана (Владимир Венгеров, приключения, 1955) [ТVRip, Не требуется] Два капитана (Владимир Венгеров, приключения, 1955) [ТVRip, Не требуется] " />

Аплоадер: Админ, дата: 27-11-2012, 21:37, торрент скачан: 359 раз

Понравилась раздача? Посмотрите эти:
  • Матрос Чижик (Владимир Браун, мелодрама, 1955) [DVDRip, Не требуется]
  • Акваланги на дне (Евгений Шерстобитов, боевик, приключения, семейный, 1965) ...
  • Дорога (Александр Столпер, боевик, 1955) [DVDRip, Не требуется]
  • Дело Румянцева (Иосиф Хейфиц, драма, криминал, детектив, 1955) [DVDRip, Не ...
  • Девушка джигит (Павел Боголюбов, комедия, 1955) [DVDRip, Не требуется]
  • Рыжик (Илья Фрэз, приключения, семейный, 1960) [DVDRip, Не требуется]
  • Приключения Толи Клюквина (Виктор Эйсымонт, комедия, семейный, 1964) [DVDRi ...
  • Попрыгунья (Самсон Самсонов, драма, 1955) [DVDRip, Не требуется]
  • Пакет (Владимир Назаров, комедия, приключения, семейный, 1965) [DVDRip, Не ...
  • Балтийское небо (2 части из 2) (Владимир Венгеров, драма, военный, история, ...
  • На графских развалинах (Владимир Скуйбин, приключения, семейный, 1957) [DVD ...
  • Михайло Ломоносов (Александр Иванов, драма, история, 1955) [DVDRip, Не треб ...
  • Лес (Владимир Мотыль, драма, 1980) [DVDRip, Не требуется]
  • Капитанская дочка (Владимир Каплуновский, драма, 1958) [DVDRip, Не требуетс ...
  • Порожний рейс (Владимир Венгеров, драма, 1962) [DVDRip, Не требуется]
  • Вениамин Каверин. Два капитана. (приключенческий роман) [MP3, 96 Кбит/с, CB ...
  • Сотрудник ЧК (Борис Волчек, боевик, история, 1963) [DVDRip, Не требуется]
  • Два капитана (Владимир Венгеров,1955) [DivX]
  • Кортик (Михаил Швейцер, Владимир Венгеров, Приключения, 1955) [DVDRip, Не т ...
  • Запасной игрок (Семен Тимошенко, комедия, спорт, 1955) [DVDRip, Не требуетс ...
  • Истребители (Эдуард Пенцлин, приключения, 1939) [DVDRip, Не требуется]
  • Вера, надежда, любовь (Владимир Грамматиков, приключения, 1984) [DVDRip, Не ...
  • Максим Перепелица (Анатолий Граник, комедия, 1955) [DVDRip, Не требуется]
  • Максимка (Владимир Браун, приключения, 1953) [DVDRip, Не требуется]
  • Мексиканец (Владимир Каплуновский, драма, 1955) [DVDRip, Не требуется]
  • Информация
    Посетители, находящиеся в группе Гости, не могут оставлять комментарии к данной публикации.