вход на сайт

Имя пользователя :
Пароль :

Восстановление пароля Регистрация
Голубая стрела (Леонид Эстрин, боевик, 1958) [DVDRip, Не требуется]
Рейтинг:
(голосов: 1)



[img]{THEME}/images/logopost.png[/img]



Голубая стрела

Год выпуска: 1958
Страна: СССР
Производство: Студия Довженко
Жанр: боевик

Режиссёр: Леонид Эстрин
В ролях: Андрей Гончаров, Генрих Осташевский, Константин Барташевич, Владимир Волчик, Павел Луспекаев, Алексей Алексеев, Алексей Максимов, Юрий Боголюбов, Анвар Тураев, Анатолий Кокорин

Перевод: Не требуется
Субтитры: Отсутствуют

Описание:
Офицер Дудник, уходя с пляжа, выбалтывает своей собеседнице время проведения первого испытания новой модели самолета. Шпионка передает новость по рации — и далее события развиваются по схеме, не предусмотренной советскими воинами…


Дополнительно:
MediaInfo ▼Text
Общее
Полное имя :L:3.РаздачаГолубая стрелаGolubaja strela.DVDRip.avi
Формат :AVI
Размер :1.37 GiB
Продолжительность :01:28:10.560
Общий поток :2 219 Kbps
Программа кодирования :VirtualDubModRus 1.5.10.2 (build 2542/release)
Библиотека кодирования :VirtualDubMod build 2542/release

Видео
Идентификатор :0
Формат :MPEG-4 Visual
Параметр BVOP формата :2
Параметр Qpel формата :No
Параметр GMC формата :0
Параметр Matrix формата :Default (H.263)
Идентификатор кодека :DX50
Продолжительность :1h 28mn 10s 560ms
Битрейт :1 825 Kbps
Ширина :704 pixels
Высота :528 pixels
Соотношение сторон :1.333
Частота кадров :25.000 fps
Глубина цвета :8 bits
Подвыборка цветности :4:2:0
Цветовое пространство :YUV
Тип развертки :Progressive
Бит/(Пиксели*Кадры) :0.196
Размер потока :1.12 GiB (82%)
Библиотека кодирования :DivX503b2676p

Аудио #1
Идентификатор :1
Формат :AC-3
Формат/Информация :Audio Coding 3
Идентификатор кодека :2000
Продолжительность :01:28:10.112
Вид битрейта :Constant
Битрейт :384 Kbps
Канал(ы) :2 channels
Расположение каналов :Front: L R
Частота :48.0 KHz
Битовая глубина :16 bits
Метод сжатия :Lossy
Размер потока :242 MiB (17%)Тех. данные:
Качество:DVDRip
Продолжител
17672b1237d0435526af990ad56c337b325c7923Голубая стрела (Леонид Эстрин, боевик, 1958) [DVDRip, Не требуется] Голубая стрела (Леонид Эстрин, боевик, 1958) [DVDRip, Не требуется] " />

Аплоадер: Админ, дата: 27-11-2012, 21:25, торрент скачан: 359 раз

Понравилась раздача? Посмотрите эти:
  • Дружок (Виктор Эйсымонт, семейный, 1958) [DVDRip, Не требуется]
  • Жаворонок (Никита Курихин, Леонид Менакер, драма, военный, 1964) [DVDRip, Н ...
  • Борец и клоун (Борис Барнет, Константин Юдин, драма, спорт, 1957) [DVDRip, ...
  • Нейтральные воды (Владимир Беренштейн, драма, 1968) [DVDRip, Не требуется]
  • Пакет (Владимир Назаров, комедия, приключения, семейный, 1965) [DVDRip, Не ...
  • Перехват (Сергей Тарасов, боевик, 1986) [DVDRip, Не требуется]
  • Опасно для жизни! (Леонид Гайдай, комедия, 1985) [DVDRip, Не требуется]
  • Капитанская дочка (Владимир Каплуновский, драма, 1958) [DVDRip, Не требуетс ...
  • Ты и я (Лариса Шепитько, драма, 1971) [DVDRip, Не требуется]
  • Сотрудник ЧК (Борис Волчек, боевик, история, 1963) [DVDRip, Не требуется]
  • Деловые люди (полная реставрация) (Леонид Гайдай, комедия, драма, 1962) [DV ...
  • ЧП – Чрезвычайное происшествие (2 части из 2-х) (Виктор Ивченко, боевик, 19 ...
  • Донская повесть (Владимир Фетин, драма, 1964) [DVDRip, Не требуется]
  • Белая акация (Георгий Натансон, комедия, 1958) [DVDRip, Не требуется]
  • Шофер поневоле (Надежда Кошеверова, комедия, 1958) [DVDRip, Не требуется]
  • Вера, надежда, любовь (Владимир Грамматиков, приключения, 1984) [DVDRip, Не ...
  • В добрый час! (Виктор Эйсымонт, драма, мелодрама, 1956) [DVDRip, Не требует ...
  • Мексиканец (Владимир Каплуновский, драма, 1955) [DVDRip, Не требуется]
  • Мамлюк (Давит Рондели, боевик, мелодрама, приключения, военный, 1958) [DVDR ...
  • К Черному морю (Андрей Тутышкин, мелодрама, комедия, 1957) [DVDRip, Не треб ...
  • Информация
    Посетители, находящиеся в группе Гости, не могут оставлять комментарии к данной публикации.