вход на сайт

Имя пользователя :
Пароль :

Восстановление пароля Регистрация
Гибель «Орла» (Василий Журавлев, приключения, 1940) [DVDRip, Не требуется]
Рейтинг:
(голосов: 1)



[img]{THEME}/images/logopost.png[/img]



Гибель «Орла»

Год выпуска: 1940
Страна: СССР
Производство: Союздетфильм
Жанр: приключения

Режиссёр: Василий Журавлев
В ролях: Николай Анненков, Виктор Громов, Сергей Столяров, Михаил Трояновский, Сергей Комаров, Лев Фенин, Андрей Файт, Петр Соболевский, Николай Горлов, Иван Бобров

Перевод: Не требуется
Субтитры: Отсутствуют

Описание:
Журнал «Эпроновец» печатает волнующую повесть о таинственном исчезновении в годы гражданской войны океанического парохода «Орел». На экране оживают страницы повести…


Дополнительно:
MediaInfo ▼Text
Общее
Полное имя :L:3.РаздачаГибель «Орла»Гибель «Орла».avi
Формат :AVI
Размер :1.09 GiB
Продолжительность :01:17:19.560
Общий поток :2 018 Kbps
Программа кодирования :XviD4PSP 6.0 / 54.4.100

Видео
Идентификатор :0
Формат :MPEG-4 Visual
Профиль формата :Advanced [email protected]
Параметр BVOP формата :1
Параметр Qpel формата :No
Параметр GMC формата :0
Параметр Matrix формата :Default (H.263)
Идентификатор кодека :XVID
Продолжительность :1h 17mn 19s 560ms
Битрейт :1 876 Kbps
Ширина :672 pixels
Высота :548 pixels
Соотношение сторон :1.338
Частота кадров :25.000 fps
Глубина цвета :8 bits
Подвыборка цветности :4:2:0
Цветовое пространство :YUV
Тип развертки :Progressive
Бит/(Пиксели*Кадры) :0.204
Размер потока :1.01 GiB (93%)
Библиотека кодирования :XviD0064

Аудио #1
Идентификатор :1
Формат :AC-3
Формат/Информация :Audio Coding 3
Идентификатор кодека :2000
Продолжительность :01:17:19.456
Вид битрейта :Constant
Битрейт :128 Kbps
Канал(ы) :2 channels
Расположение каналов :Front: L R
Частота :48.0 KHz
Битовая глубина :16 bits
Метод сжатия :Lossy
Размер потока :6.67 MiB (1%)Тех. данные:
Качество:DVDRip
Продолжительность:01:17:10 час

Формат: AVI
Видео кодек: XviD
Аудио кодек: AC3
Видео: 672 x 54
d76ac37cefcada09368abc3cb1f921edaff50465Гибель «Орла» (Василий Журавлев, приключения, 1940) [DVDRip, Не требуется] Гибель «Орла» (Василий Журавлев, приключения, 1940) [DVDRip, Не требуется] " />

Аплоадер: Админ, дата: 27-11-2012, 21:19, торрент скачан: 359 раз

Понравилась раздача? Посмотрите эти:
  • На подмостках сцены (Константин Юдин, драма, комедия, 1956) [DVDRip, Не тре ...
  • Где это видано, где это слыхано (Валентин Горлов, короткометражка, комедия, ...
  • Старшина (Николай Кошелев, драма, 1979) [DVDRip, Не требуется]
  • Таинственная находка (Борис Бунеев, детский, приключения, 1954) [DVDRip, Не ...
  • Всадник на золотом коне (Василий Журавлев, фэнтези, 1980) [DVDRip, Не требу ...
  • Захар Беркут (Леонид Осыка, драма, история, 1972) [DVDRip, Не требуется]
  • Освобождение (Александр Довженко, Юлия Солнцева, документальный, 1940) [DVD ...
  • Моя любовь (Владимир Корш-Саблин, мюзикл, мелодрама, комедия, 1940) [DVDRip ...
  • Левша (Сергей Овчаров, драма, комедия, 1986) [DVDRip, Не требуется]
  • Комиссар (Александр Аскольдов, драма, военный, 1967) [DVDRip, Не требуется] ...
  • Князь Игорь (Роман Тихомиров, мюзикл, приключения, 1969) [DVDRip, Не требуе ...
  • Повесть о настоящем человеке (Александр Столпер, драма, военный, 1948) [DVD ...
  • Небывальщина (Сергей Овчаров, комедия, 1983) [DVDRip, Не требуется]
  • Таинственный остров (Эдуард Пенцлин, фантастика, приключения, семейный, 194 ...
  • Танкер «Дербент» (Александр Файнциммер, приключения, 1940) [DVDRip, Не треб ...
  • Пятый океан (Исидор Анненский, драма, 1940) [DVDRip, Не требуется]
  • Красная площадь (Василий Ордынский, драма, военный, 1971) [DVDRip, Не требу ...
  • Садко (Александр Птушко, фэнтези, приключения, 1952) [DVDRip, Не требуется] ...
  • Пограничный пес Алый (Юлий Файт, драма, 1979) [DVDRip, Не требуется]
  • Золотая речка (Вениамин Дорман, приключения, 1977) [DVDRip, Не требуется]
  • Адмирал Нахимов (Всеволод Пудовкин, драма, военный, биография, история, 194 ...
  • Суворов (Михаил Доллер, Всеволод Пудовкин, драма, военный, биография, истор ...
  • Максимка (Владимир Браун, приключения, 1953) [DVDRip, Не требуется]
  • Мичман Панин (Михаил Швейцер, приключения, военный, история, 1960) [DVDRip, ...
  • Целуются зори (Сергей Никоненко, комедия, 1978) [DVDRip, Не требуется]
  • Информация
    Посетители, находящиеся в группе Гости, не могут оставлять комментарии к данной публикации.