вход на сайт

Имя пользователя :
Пароль :

Восстановление пароля Регистрация
Белый клык (Александр Згуриди, приключения, 1947) [DVDRip, Не требуется]
Рейтинг:
(голосов: 1)



[img]{THEME}/images/logopost.png[/img]



Белый клык

Год выпуска: 1947
Страна: СССР
Производство: Моснаучфильм
Жанр: приключения

Режиссёр: Александр Згуриди
В ролях: Олег Жаков, Елена Измайлова, Лев Свердлин, Николай Плотников, Осип Абдулов, Иван Бобров, Эммануил Геллер, В. Латышевский, Петр Репнин

Перевод: Не требуется
Субтитры: Отсутствуют

Описание:
Горный инженер Смит воспитывает собаку, которую он спас во время кровавого собачьего боя. Но его питомец Белый Клык злобен и агрессивен, ведь его воспитывал как пса-убийцу.

Не мало прошло времени, прежде чем человек и собака подружились. Но однажды ночью за Клыком пришел его прежний хозяин, вооруженный револьвером.


Дополнительно:
MediaInfo ▼Text
Общее
Полное имя :L:3.РаздачаБелый Клык.1946Beliy klyk.avi
Формат :AVI
Размер :1.37 GiB
Продолжительность :01:19:18.240
Общий поток :2 467 Kbps
Программа кодирования :VirtualDubModRus 1.5.10.2 (build 2542/release)
Библиотека кодирования :VirtualDubMod build 2542/release

Видео
Идентификатор :0
Формат :MPEG-4 Visual
Параметр BVOP формата :1
Параметр Qpel формата :No
Параметр GMC формата :0
Параметр Matrix формата :Default (H.263)
Идентификатор кодека :DX50
Продолжительность :1h 19mn 18s 240ms
Битрейт :2 265 Kbps
Ширина :704 pixels
Высота :528 pixels
Соотношение сторон :1.333
Частота кадров :25.000 fps
Глубина цвета :8 bits
Подвыборка цветности :4:2:0
Цветовое пространство :YUV
Тип развертки :Progressive
Бит/(Пиксели*Кадры) :0.244
Размер потока :1.25 GiB (92%)
Библиотека кодирования :DivX503b2676p

Аудио #1
Идентификатор :1
Формат :MPEG Audio
Идентификатор кодека :55
Продолжительность :01:19:18.216
Вид битрейта :Constant
Битрейт :192 Kbps
Канал(ы) :2 channels
Частота :48.0 KHz
Метод сжатия :Lossy
Размер потока :109 MiB (8%)Тех. данные:
Качество:DVDRip
Продолжительность:01:19:10 час

Формат: AVI
Видео кодек: DivX
Аудио кодек: MPA1L3
Видео: 704 x 528 (4:3), 25.000 fps, 2 265 Kbps, 0.244 bit/pixel
86d31f39130a63e207e5d7523025c2d42669300bБелый клык (Александр Згуриди, приключения, 1947) [DVDRip, Не требуется] Белый клык (Александр Згуриди, приключения, 1947) [DVDRip, Не требуется] " />

Аплоадер: Админ, дата: 27-11-2012, 20:58, торрент скачан: 359 раз

Понравилась раздача? Посмотрите эти:
  • Бой под Соколом (Александр Разумный, военный, 1942) [DVDRip, Не требуется]
  • Зеленые цепочки (Григорий Аронов, приключения, 1970) [DVDRip, Не требуется] ...
  • Эзоп (Олег Рябоконь, драма, история, 1981) [DVDRip, Не требуется]
  • Шанс (Александр Майоров, фантастика, фэнтези, мелодрама, комедия, приключен ...
  • Четвертый (Александр Столпер, драма, 1972) [DVDRip, Не требуется]
  • Поезд идёт на восток (Цветной) (Юлий Райзман, мелодрама, комедия, 1947) [DV ...
  • Комиссар (Александр Аскольдов, драма, военный, 1967) [DVDRip, Не требуется] ...
  • Повесть о «Неистовом» (Борис Бабочкин, драма, военный, 1947) [DVDRip, Перев ...
  • Царевич Проша (Надежда Кошеверова, фэнтези, семейный, 1947) [DVDRip, Не тре ...
  • Черная гора (Александр Згуриди, драма, семейный, 1972) [DVDRip, Профессиона ...
  • Танкер «Дербент» (Александр Файнциммер, приключения, 1940) [DVDRip, Не треб ...
  • Майская ночь, или Утопленница (Александр Роу, фэнтези, комедия, 1952) [DVDR ...
  • Рикки-Тикки-Тави (Александр Згуриди, семейный, 1975) [DVDRip, Не требуется] ...
  • Садко (Александр Птушко, фэнтези, приключения, 1952) [DVDRip, Не требуется] ...
  • Белый клык / White Fang (Рэндал Клайзер, драма, приключения, 1991) [HDRip, ...
  • Белый клык 2: Легенда о белом волке / White Fang 2: Myth of the White Wolf ...
  • Болотные солдаты (Александр Мачерет, драма, военный, 1938) [DVDRip, Не треб ...
  • Драгоценный подарок (Александр Роу, семейный, 1956) [DVDRip, Не требуется]
  • Дядюшкин сон (2 части из2) (Александр Орлов, драма, комедия, 1981) [DVDRip, ...
  • Вера, надежда, любовь (Владимир Грамматиков, приключения, 1984) [DVDRip, Не ...
  • Информация
    Посетители, находящиеся в группе Гости, не могут оставлять комментарии к данной публикации.