вход на сайт

Имя пользователя :
Пароль :

Восстановление пароля Регистрация
Фонтан (Юрий Мамин, комедия, 1989) [DVDRip, Не требуется]
Рейтинг:
(голосов: 1)



[img]{THEME}/images/logopost.png[/img]



Фонтан

Год выпуска: 1989
Страна: СССР
Производство: Ленфильм
Жанр: комедия

Режиссёр: Юрий Мамин
В ролях: Асанкул Куттубаев, Сергей Дрейден, Жанна Керимтаева, Алексей Заливалов, Нина Усатова, Анатолий Калмыков, Людмила Самохвалова, Николай Траньков, Любовь Аркус, Нийоле Адоменайте

Перевод: Не требуется
Субтитры: Отсутствуют

Описание:
Фильм снят в жанре анекдота, «злоба дня» которого до сих пор не устарела. Действие происходит в обычном питерском доме, давно нуждающемся в ремонте. На примере неполадок этого дома и столь же искреннего, сколь и тщетного желания жильцов их устранить авторы создают трагикомическую иллюстрацию до боли знакомой всем нам «разрухи в головах».


Дополнительно:
MediaInfo ▼Text
Общее
Полное имя :L:3.РаздачаФонтанFontan_DVDRip.avi
Формат :AVI
Размер :1.46 GiB
Продолжительность :01:38:05.920
Общий поток :2 136 Kbps
Программа кодирования :VirtualDubModRus 1.5.10.2 (build 2542/release)
Библиотека кодирования :VirtualDubMod build 2542/release

Видео
Идентификатор :0
Формат :MPEG-4 Visual
Параметр BVOP формата :1
Параметр Qpel формата :No
Параметр GMC формата :0
Параметр Matrix формата :Default (H.263)
Идентификатор кодека :DX50
Продолжительность :1h 38mn 5s 920ms
Битрейт :1 935 Kbps
Ширина :704 pixels
Высота :528 pixels
Соотношение сторон :1.333
Частота кадров :25.000 fps
Глубина цвета :8 bits
Подвыборка цветности :4:2:0
Цветовое пространство :YUV
Тип развертки :Progressive
Бит/(Пиксели*Кадры) :0.208
Размер потока :1.33 GiB (91%)
Библиотека кодирования :DivX503b2676p

Аудио #1
Идентификатор :1
Формат :AC-3
Формат/Информация :Audio Coding 3
Идентификатор кодека :2000
Продолжительность :01:38:05.920
Вид битрейта :Constant
Битрейт :192 Kbps
Канал(ы) :2 channels
Расположение каналов :Front: L R
Частота :48.0 KHz
Битовая глубина :16 bits
Метод сжатия :Lossy
Размер потока :135 MiB (9%)
 
39f9edb4545583119e31e138f71520119f27d96bФонтан (Юрий Мамин, комедия, 1989) [DVDRip, Не требуется] Фонтан (Юрий Мамин, комедия, 1989) [DVDRip, Не требуется] " />

Аплоадер: Админ, дата: 25-11-2012, 19:54, торрент скачан: 359 раз

Понравилась раздача? Посмотрите эти:
  • На подмостках сцены (Константин Юдин, драма, комедия, 1956) [DVDRip, Не тре ...
  • Начало (Глеб Панфилов, мелодрама, комедия, 1970) [DVDRip, Не требуется]
  • Дон Сезар де Базан (2 части из 2) (Ян Фрид, мюзикл, комедия, 1989) [DVDRip, ...
  • Дама с собачкой (Иосиф Хейфиц, драма, мелодрама, 1959) [DVDRip, Не требуетс ...
  • Ох, уж эта Настя! (Юрий Победоносцев, семейный, 1972) [DVDRip, Не требуется ...
  • Две стрелы. Детектив каменного века (Алла Сурикова, комедия, криминал, 1989 ...
  • Дамы и гусары (Анатолий Ниточкин, Александра Ремизова, комедия, 1976) [DVDR ...
  • Деревенский детектив (Иван Лукинский, комедия, криминал, 1968) [DVDRip, Не ...
  • Левша (Сергей Овчаров, драма, комедия, 1986) [DVDRip, Не требуется]
  • Фантазеры (Исаак Магитон, И. Сафарова, детский, 1965) [DVDRip, Не требуется ...
  • Чайка (Юлий Карасик, драма, 1972) [DVDRip, Не требуется]
  • Небывальщина (Сергей Овчаров, комедия, 1983) [DVDRip, Не требуется]
  • Непобедимый (Юрий Борецкий, боевик, 1983) [DVDRip, Не требуется]
  • Бабушки надвое сказали (Валерий Харченко, Юрий Клебанов, комедия, 1979) [DV ...
  • Светлая личность (Александр Павловский, мюзикл, комедия, 1989) [DVDRip, Не ...
  • Уходя - уходи (Виктор Трегубович, комедия, 1978) [DVDRip, Не требуется]
  • Старомодная комедия (Эра Савельева, Татьяна Березанцева, мелодрама, 1978) [ ...
  • Похождения Насреддина (Наби Ганиев, комедия, 1946) [DVDRip, Не требуется]
  • Садко (Александр Птушко, фэнтези, приключения, 1952) [DVDRip, Не требуется] ...
  • В лесах под Ковелем (3 части из 3) (Юрий Тупицкий, военный, история, 1984) ...
  • Хозяин и слуга (Дмитрий Кесаянц, короткометражка, комедия, 1963) [DVDRip, Н ...
  • Шофер поневоле (Надежда Кошеверова, комедия, 1958) [DVDRip, Не требуется]
  • К Черному морю (Андрей Тутышкин, мелодрама, комедия, 1957) [DVDRip, Не треб ...
  • Карантин (Илья Фрэз, комедия, 1983) [DVDRip, Не требуется]
  • За облаками – небо (Юрий Егоров, драма, 1973) [DVDRip, Не требуется]
  • Информация
    Посетители, находящиеся в группе Гости, не могут оставлять комментарии к данной публикации.