вход на сайт

Имя пользователя :
Пароль :

Восстановление пароля Регистрация
Чудак-человек (Владимир Кочетов, комедия, 1962) [DVDRip, Не требуется]
Рейтинг:
(голосов: 1)



[img]{THEME}/images/logopost.png[/img]



Чудак-человек

Год выпуска: 1962
Страна: СССР
Производство: Одесская киностудия
Жанр: комедия

Режиссёр: Владимир Кочетов
В ролях: Михаил Пуговкин, Светлана Живанкова, Борис Ситко, Борис Белов, Аркадий Трусов, Любовь Малиновская, Елизавета Никищихина, Григорий Михайлов, Василий Векшин, Петр Любешкин

Перевод: Не требуется
Субтитры: Отсутствуют

Описание:
В «Заготскотконтору» пришел новый управляющий Максим Межа. Его приход ознаменовался подарками от некоторых подчиненных — подхалимов и жуликов. Но Максим оказался неподкупным, и тогда проходимцы начали войну против него с помощью анонимок и доносов…


Дополнительно:
MediaInfo ▼Text
Общее
Полное имя :L:3.РаздачаЧудак-человекChudak_chelovek_DVDRip.avi
Формат :AVI
Размер :1.09 GiB
Продолжительность :01:03:02.600
Общий поток :2 483 Kbps
Программа кодирования :VirtualDubModRus 1.5.10.2 (build 2542/release)
Библиотека кодирования :VirtualDubMod build 2542/release

Видео
Идентификатор :0
Формат :MPEG-4 Visual
Параметр BVOP формата :1
Параметр Qpel формата :No
Параметр GMC формата :0
Параметр Matrix формата :Default (H.263)
Идентификатор кодека :DX50
Продолжительность :1h 3mn 2s 600ms
Битрейт :2 025 Kbps
Ширина :704 pixels
Высота :528 pixels
Соотношение сторон :1.333
Частота кадров :25.000 fps
Глубина цвета :8 bits
Подвыборка цветности :4:2:0
Цветовое пространство :YUV
Тип развертки :Progressive
Бит/(Пиксели*Кадры) :0.218
Размер потока :913 MiB (82%)
Библиотека кодирования :DivX503b2676p

Аудио #1
Идентификатор :1
Формат :AC-3
Формат/Информация :Audio Coding 3
Идентификатор кодека :2000
Продолжительность :01:03:02.592
Вид битрейта :Constant
Битрейт :448 Kbps
Канал(ы) :6 channels
Расположение каналов :Front: L C R, Side: L R, LFE
Частота :48.0 KHz
Битовая глубина :16 bits
Метод сжатия :Lossy
Размер потока :202 MiB (18%)Тех. данные:
Качество:DVDRip
Продо
6ce642308217e642d8422e9a434e0edfe70ebe47Чудак-человек (Владимир Кочетов, комедия, 1962) [DVDRip, Не требуется] Чудак-человек (Владимир Кочетов, комедия, 1962) [DVDRip, Не требуется] " />

Аплоадер: Админ, дата: 25-11-2012, 18:55, торрент скачан: 359 раз

Понравилась раздача? Посмотрите эти:
  • Нейтральные воды (Владимир Беренштейн, драма, 1968) [DVDRip, Не требуется]
  • Дикая собака Динго (Юлий Карасик, драма, 1962) [DVDRip, Не требуется]
  • Штрафной удар (Вениамин Дорман, комедия, спорт, 1963) [DVDRip, Не требуется ...
  • Ход конем (Татьяна Лукашевич, комедия, 1962) [DVDRip, Не требуется]
  • Путь в "Сатурн" (Виллен Азаров, военный, 1967) [DVDRip, Не требуется]
  • Конец "Сатурна" (Виллен Азаров, Мосфильм, 1967) [DVDRip, Не требуется]
  • Приключения Толи Клюквина (Виктор Эйсымонт, комедия, семейный, 1964) [DVDRi ...
  • Пакет (Владимир Назаров, комедия, приключения, семейный, 1965) [DVDRip, Не ...
  • На графских развалинах (Владимир Скуйбин, приключения, семейный, 1957) [DVD ...
  • Лес (Владимир Мотыль, драма, 1980) [DVDRip, Не требуется]
  • Печёнка (Арман Манарян, короткометражка, комедия, 1962) [DVDRip, Не требует ...
  • Порожний рейс (Владимир Венгеров, драма, 1962) [DVDRip, Не требуется]
  • Семь нянек (Ролан Быков, комедия, 1962) [DVDRip, Не требуется]
  • Чудак из пятого «Б» (Илья Фрэз, комедия, семейный, 1972) [DVDRip, Не требуе ...
  • Бабушки надвое сказали (Валерий Харченко, Юрий Клебанов, комедия, 1979) [DV ...
  • Сотрудник ЧК (Борис Волчек, боевик, история, 1963) [DVDRip, Не требуется]
  • Скверный анекдот (Александр Алов, Владимир Наумов, комедия, 1966) [DVDRip, ...
  • Проделки в старинном духе (Александр Панкратов, комедия, 1986) [DVDRip, Не ...
  • Похождения Насреддина (Наби Ганиев, комедия, 1946) [DVDRip, Не требуется]
  • Деловые люди (полная реставрация) (Леонид Гайдай, комедия, драма, 1962) [DV ...
  • Увольнение на берег (Феликс Миронер, Рoмaнтичecкaя кoмeдия, 1962) [DVDRip, ...
  • Увольнение на берег (Феликс Миронер, Рoмaнтичecкaя кoмeдия, 1962) [DVDRip, ...
  • Донская повесть (Владимир Фетин, драма, 1964) [DVDRip, Не требуется]
  • Мексиканец (Владимир Каплуновский, драма, 1955) [DVDRip, Не требуется]
  • Карьера Димы Горина (Фрунзе Довлатян, Лев Мирский, комедия, 1962) [DVDRip, ...
  • Информация
    Посетители, находящиеся в группе Гости, не могут оставлять комментарии к данной публикации.