вход на сайт

Имя пользователя :
Пароль :

Восстановление пароля Регистрация
Шведская спичка (Константин Юдин, комедия, детектив, 1955) [DVDRip, Не требуется]
Рейтинг:
(голосов: 1)



[img]{THEME}/images/logopost.png[/img]



Шведская спичка

Год выпуска: 1955
Страна: СССР
Производство: Мосфильм
Жанр: комедия, детектив

Режиссёр: Константин Юдин
В ролях: Алексей Грибов, Андрей Попов, Михаил Яншин, Николай Гриценко, Николай Курочкин, Владимир Колчин, Тамара Носова, Ксения Тарасова, Марина Кузнецова, Михаил Названов

Перевод: Не требуется
Субтитры: Отсутствуют

Описание:
Обитатели уезда взбудоражены неожиданным известием: убит отставной корнет Марк Кляузов. Горе-следователи обнаруживают на месте преступления улику — обгоревшую шведскую спичку. В их сознании четко выстраивается цепь ужасных событий, как вдруг дело принимает совсем иной оборот…


Дополнительно:
MediaInfo ▼Text
Общее
Полное имя :L:3.РаздачаШведская спичкаShvedskaja.spichka.avi
Формат :AVI
Размер :1.09 GiB
Продолжительность :00:52:14.240
Общий поток :2 998 Kbps
Программа кодирования :VirtualDubMod 1.5.10.2 (build 2542/release)

Видео
Идентификатор :0
Формат :MPEG-4 Visual
Профиль формата :Advanced [email protected]
Параметр BVOP формата :1
Параметр Qpel формата :No
Параметр GMC формата :0
Параметр Matrix формата :Custom
Идентификатор кодека :XVID
Продолжительность :52mn 14s 240ms
Битрейт :2 799 Kbps
Ширина :720 pixels
Высота :560 pixels
Соотношение сторон :1.286
Частота кадров :25.000 fps
Глубина цвета :8 bits
Подвыборка цветности :4:2:0
Цветовое пространство :YUV
Тип развертки :Progressive
Бит/(Пиксели*Кадры) :0.278
Размер потока :1.02 GiB (93%)
Библиотека кодирования :XviD0046

Аудио #1
Идентификатор :1
Формат :AC-3
Формат/Информация :Audio Coding 3
Идентификатор кодека :2000
Продолжительность :00:52:14.208
Вид битрейта :Constant
Битрейт :192 Kbps
Канал(ы) :2 channels
Расположение каналов :Front: L R
Частота :48.0 KHz
Битовая глубина :16 bits
Метод сжатия :Lossy
Размер потока :71.7 MiB (6%)Тех. данные:
Качество:DVD
95e5370458796d4ac38d5a1d34aeaaf7953f3c9eШведская спичка (Константин Юдин, комедия, детектив, 1955) [DVDRip, Не требуется] Шведская спичка (Константин Юдин, комедия, детектив, 1955) [DVDRip, Не требуется] " />

Аплоадер: Админ, дата: 25-11-2012, 18:44, торрент скачан: 359 раз

Понравилась раздача? Посмотрите эти:
  • На подмостках сцены (Константин Юдин, драма, комедия, 1956) [DVDRip, Не тре ...
  • Борец и клоун (Борис Барнет, Константин Юдин, драма, спорт, 1957) [DVDRip, ...
  • Мир дому твоему (2 части из 2) (Константин Райкин, Аркадий Райкин, Марк Орл ...
  • Дорога (Александр Столпер, боевик, 1955) [DVDRip, Не требуется]
  • Дело Румянцева (Иосиф Хейфиц, драма, криминал, детектив, 1955) [DVDRip, Не ...
  • Девушка джигит (Павел Боголюбов, комедия, 1955) [DVDRip, Не требуется]
  • Таинственная находка (Борис Бунеев, детский, приключения, 1954) [DVDRip, Не ...
  • Попрыгунья (Самсон Самсонов, драма, 1955) [DVDRip, Не требуется]
  • Деревенский детектив (Иван Лукинский, комедия, криминал, 1968) [DVDRip, Не ...
  • Михайло Ломоносов (Александр Иванов, драма, история, 1955) [DVDRip, Не треб ...
  • Мы с вами где-то встречались (Николай Досталь, Андрей Тутышкин, комедия, 19 ...
  • Дуэнья (Михаил Григорьев, комедия, история, 1978) [DVDRip, Не требуется]
  • Дача (Константин Воинов, комедия, 1974) [DVDRip, Не требуется]
  • Небывальщина (Сергей Овчаров, комедия, 1983) [DVDRip, Не требуется]
  • Смелые люди (Константин Юдин, боевик, драма, военный, 1950) [DVDRip, Не тре ...
  • Уходя - уходи (Виктор Трегубович, комедия, 1978) [DVDRip, Не требуется]
  • Проделки в старинном духе (Александр Панкратов, комедия, 1986) [DVDRip, Не ...
  • Неприятности с Гарри / The Trouble with Harry (Альфред Хичкок, комедия, три ...
  • Близнецы (Константин Юдин, комедия, 1945) [TVRip, Перевод, Не требуется]
  • Запасной игрок (Семен Тимошенко, комедия, спорт, 1955) [DVDRip, Не требуетс ...
  • Дядюшкин сон (Константин Воинов, драма, 1966) [DVDRip, Не требуется]
  • Максим Перепелица (Анатолий Граник, комедия, 1955) [DVDRip, Не требуется]
  • Мексиканец (Владимир Каплуновский, драма, 1955) [DVDRip, Не требуется]
  • Комедия строгого режима (Михаил Григорьев, Владимир Студенников, Комедия, 1 ...
  • Сердца четырех (Константин Юдин, мелодрама, комедия, 1941) [DVDRip, Не треб ...
  • Информация
    Посетители, находящиеся в группе Гости, не могут оставлять комментарии к данной публикации.