вход на сайт

Имя пользователя :
Пароль :

Восстановление пароля Регистрация
Шофер поневоле (Надежда Кошеверова, комедия, 1958) [DVDRip, Не требуется]
Рейтинг:
(голосов: 1)



[img]{THEME}/images/logopost.png[/img]



Шофер поневоле

Год выпуска: 1958
Страна: СССР
Производство: Ленфильм
Жанр: комедия

Режиссёр: Надежда Кошеверова
В ролях: Антоний Ходурский, Мария Миронова, Сергей Филиппов, Лилия Гриценко, Ирина Зарубина, Вера Карпова, Юрий Соловьев, Павел Суханов, Петр Алейников, Анатолий Абрамов
Перевод: Не требуется
Субтитры: Отсутствуют

Описание:
Ехали в отпуск руководитель главка и его шофер. И так случилось, что шофер попал в больницу с радикулитом и документами своего начальника. Тут-то все и началось…


Дополнительно:
MediaInfo ▼Text
Общее
Полное имя :L:3.РаздачаШофёр поневолеShofjor_ponevole.avi
Формат :AVI
Размер :1.37 GiB
Продолжительность :01:27:37.200
Общий поток :2 233 Kbps
Программа кодирования :VirtualDubModRus 1.5.10.2 (build 2542/release)
Библиотека кодирования :VirtualDubMod build 2542/release

Видео
Идентификатор :0
Формат :MPEG-4 Visual
Параметр BVOP формата :1
Параметр Qpel формата :No
Параметр GMC формата :0
Параметр Matrix формата :Default (H.263)
Идентификатор кодека :DX50
Продолжительность :1h 27mn 37s 200ms
Битрейт :2 032 Kbps
Ширина :672 pixels
Высота :496 pixels
Соотношение сторон :1.355
Частота кадров :25.000 fps
Глубина цвета :8 bits
Подвыборка цветности :4:2:0
Цветовое пространство :YUV
Тип развертки :Progressive
Бит/(Пиксели*Кадры) :0.244
Размер потока :1.24 GiB (91%)
Библиотека кодирования :DivX503b2559p

Аудио #1
Идентификатор :1
Формат :AC-3
Формат/Информация :Audio Coding 3
Идентификатор кодека :2000
Продолжительность :01:27:37.024
Вид битрейта :Constant
Битрейт :192 Kbps
Канал(ы) :2 channels
Расположение каналов :Front: L R
Частота :48.0 KHz
Битовая глубина :16 bits
Метод сжатия :Lossy
Размер потока :120 MiB (9%)Тех. данные:
Качество:DVDRip
Продолжительность:01:27:30 час

Формат: AVI
Видео кодек: DivX
Аудио кодек: AC
5a719462dc700669d69d0fc92bf3e39b8ebe4853Шофер поневоле (Надежда Кошеверова, комедия, 1958) [DVDRip, Не требуется] Шофер поневоле (Надежда Кошеверова, комедия, 1958) [DVDRip, Не требуется] " />

Аплоадер: Админ, дата: 25-11-2012, 18:28, торрент скачан: 359 раз

Понравилась раздача? Посмотрите эти:
  • На подмостках сцены (Константин Юдин, драма, комедия, 1956) [DVDRip, Не тре ...
  • Медовый месяц (Надежда Кошеверова, мелодрама, комедия, 1956) [DVDRip, Не тр ...
  • И вот пришел Бумбо... (Надежда Кошеверова, В. Апананский, Н. Окунцова, семе ...
  • Ослиная шкура (Надежда Кошеверова, фэнтези, мелодрама, комедия, семейный, 1 ...
  • Капитанская дочка (Владимир Каплуновский, драма, 1958) [DVDRip, Не требуетс ...
  • Царевич Проша (Надежда Кошеверова, фэнтези, семейный, 1947) [DVDRip, Не тре ...
  • Порожний рейс (Владимир Венгеров, драма, 1962) [DVDRip, Не требуется]
  • Семь нянек (Ролан Быков, комедия, 1962) [DVDRip, Не требуется]
  • Как Иванушка-дурачок за чудом ходил (Надежда Кошеверова, фэнтези, семейный, ...
  • У тихой пристани... (Эдуард Абалов, Тамаз Мелиава, комедия, 1958) [DVDRip, ...
  • Тень (Реставрация) (Надежда Кошеверова, фэнтези, драма, мелодрама, комедия, ...
  • Сегодня – новый аттракцион (Надежда Кошеверова, Аполлинарий Дудко, комедия, ...
  • Старая, старая сказка (Надежда Кошеверова, фэнтези, семейный, 1968) [DVDRip ...
  • Соловей (Надежда Кошеверова, мюзикл, семейный, 1979) [DVDRip, Не требуется] ...
  • Хозяин и слуга (Дмитрий Кесаянц, короткометражка, комедия, 1963) [DVDRip, Н ...
  • Будь красивой и молчи / Sois belle et tais-toi (Марк Аллегре, комедия, 1958 ...
  • Белая акация (Георгий Натансон, комедия, 1958) [DVDRip, Не требуется]
  • Голубая стрела (Леонид Эстрин, боевик, 1958) [DVDRip, Не требуется]
  • Вера, надежда, любовь (Владимир Грамматиков, приключения, 1984) [DVDRip, Не ...
  • Каин XVIII (Надежда Кошеверова, Михаил Шапиро, фэнтези, мелодрама, приключе ...
  • Информация
    Посетители, находящиеся в группе Гости, не могут оставлять комментарии к данной публикации.