вход на сайт

Имя пользователя :
Пароль :

Восстановление пароля Регистрация
Здравствуйте, я ваша тетя! (Виктор Титов, комедия, 1974) [DVDRip, Не требуется]
Рейтинг:
(голосов: 1)



[img]{THEME}/images/logopost.png[/img]



Здравствуйте, я ваша тетя!

Год выпуска: 1974
Страна: СССР
Производство: ТО Экран
Жанр: комедия

Режиссёр: Виктор Титов
В ролях: Александр Калягин, Михаил Козаков, Армен Джигарханян, Валентин Гафт, Татьяна Васильева, Тамара Носова, Татьяна Веденеева, Михаил Любезнов, Олег Шкловский, Галина Орлова

Перевод: Не требуется
Субтитры: Отсутствуют

Описание:
По мотивам пьесы Б. Томаса «Тетка Чарлея». Действие происходит в начале ХХ века. Безработный Бабс попадает в богатый дом, где вынужден, переодевшись в женскую одежду, сыграть роль тетушки-миллионерши, чтобы помочь двум юношам жениться на их возлюбленных…


Дополнительно:
MediaInfo ▼Text
Общее
Полное имя :L:3.РаздачаЗдравствуйте, я ваша тетя!dravstvuyte y vasha tety.avi
Формат :AVI
Размер :1.46 GiB
Продолжительность :01:37:29.056
Общий поток :2 150 Kbps
Программа кодирования :VirtualDubModRus 1.5.10.2 (build 2542/release)
Библиотека кодирования :VirtualDubMod build 2542/release

Видео
Идентификатор :0
Формат :MPEG-4 Visual
Параметр BVOP формата :1
Параметр Qpel формата :No
Параметр GMC формата :0
Параметр Matrix формата :Default (H.263)
Идентификатор кодека :DX50
Продолжительность :1h 37mn 29s 40ms
Битрейт :1 757 Kbps
Ширина :720 pixels
Высота :544 pixels
Соотношение сторон :1.324
Частота кадров :25.000 fps
Глубина цвета :8 bits
Подвыборка цветности :4:2:0
Цветовое пространство :YUV
Тип развертки :Progressive
Бит/(Пиксели*Кадры) :0.179
Размер потока :1.20 GiB (82%)
Библиотека кодирования :DivX503b2676p

Аудио #1
Идентификатор :1
Формат :AC-3
Формат/Информация :Audio Coding 3
Идентификатор кодека :2000
Продолжительность :01:37:29.056
Вид битрейта :Constant
Битрейт :384 Kbps
Канал(ы) :6 channels
Расположение каналов :Front: L C R, Side: L R, LFE
Частота :48.0 KHz
Битовая глубина :16 bits
Метод сжатия :Lossy
Размер потока :268 MiB (18%)Т
f82edf46e6fcc3537ce8342efb682f630ff92862Здравствуйте, я ваша тетя! (Виктор Титов, комедия, 1974) [DVDRip, Не требуется] Здравствуйте, я ваша тетя! (Виктор Титов, комедия, 1974) [DVDRip, Не требуется] " />

Аплоадер: Админ, дата: 24-11-2012, 20:07, торрент скачан: 359 раз

Понравилась раздача? Посмотрите эти:
  • На подмостках сцены (Константин Юдин, драма, комедия, 1956) [DVDRip, Не тре ...
  • Отпуск за свой счет (2 части из 2) (Виктор Титов, мелодрама, комедия, 1981) ...
  • Начало (Глеб Панфилов, мелодрама, комедия, 1970) [DVDRip, Не требуется]
  • Люди и манекены (4 части из 4) (Виктор Храмов, Аркадий Райкин, комедия, 197 ...
  • Четвертый (Александр Столпер, драма, 1972) [DVDRip, Не требуется]
  • Приключения Толи Клюквина (Виктор Эйсымонт, комедия, семейный, 1964) [DVDRi ...
  • Покровские ворота (2 части из 2) (Михаил Козаков, мюзикл, драма, мелодрама, ...
  • Иван да Марья (Борис Рыцарев, фэнтези, мелодрама, комедия, семейный, музыка ...
  • Легкая жизнь (Вениамин Дорман, комедия, 1964) [DVDRip, Не требуется]
  • Тетка Чарлея / Charleys aunt (Арчи Майо, мелодрама, комедия, 1941) [DVDRip, ...
  • Здравствуйте, мы ваша крыша! (Виталий Мухаметзянов, Комедия, 2005) [DVDRip- ...
  • Печники (Виктор Храмов, драма, 1982) [DVDRip, Не требуется]
  • Дача (Константин Воинов, комедия, 1974) [DVDRip, Не требуется]
  • Светлая личность (Александр Павловский, мюзикл, комедия, 1989) [DVDRip, Не ...
  • Уходя - уходи (Виктор Трегубович, комедия, 1978) [DVDRip, Не требуется]
  • Прощайте, фараоны! (Давид Черкасский, Вячеслав Винник, комедия, 1974) [DVDR ...
  • Старомодная комедия (Эра Савельева, Татьяна Березанцева, мелодрама, 1978) [ ...
  • Здравствуйте, я ваша тетя! [1975, комедия, DVDrip]
  • Гений (2 части из 2) (Виктор Сергеев, Комедия, криминал, 1991) [DVDRip, Не ...
  • В добрый час! (Виктор Эйсымонт, драма, мелодрама, 1956) [DVDRip, Не требует ...
  • Информация
    Посетители, находящиеся в группе Гости, не могут оставлять комментарии к данной публикации.