вход на сайт

Имя пользователя :
Пароль :

Восстановление пароля Регистрация
Живите в радости (Леонид Миллионщиков, комедия, 1978) [DVDRip, Не требуется]
Рейтинг:
(голосов: 1)



[img]{THEME}/images/logopost.png[/img]



Живите в радости

Год выпуска: 1978
Страна: СССР
Производство: Мосфильм
Жанр: комедия

Режиссёр: Леонид Миллионщиков
В ролях: Леонид Куравлёв, Владимир Басов, Борис Новиков, Валентина Телегина, Зоя Фёдорова, Елена Драпеко, Роман Филиппов, Нина Гребешкова, Светлана Харитонова, Савелий Крамаров

Перевод: Не требуется
Субтитры: Отсутствуют

Описание:
Дмитрий Петрович Пряжкин постоянно что-то мастерит. Чинит все подряд, близкие даже покой потеряли. Так что односельчане ничего теперь не выбрасывают, а просто откладывают для неугомонного Митяя…


Дополнительно:
MediaInfo ▼Text
Общее
Полное имя :L:3.РаздачаЖивите в радостиjivite_v_radosti.avi
Формат :AVI
Размер :1.37 GiB
Продолжительность :01:11:50.880
Общий поток :2 728 Kbps

Видео
Идентификатор :0
Формат :MPEG-4 Visual
Профиль формата :Advanced [email protected]
Параметр BVOP формата :1
Параметр Qpel формата :No
Параметр GMC формата :0
Параметр Matrix формата :Custom
Идентификатор кодека :XVID
Продолжительность :1h 11mn 50s 880ms
Битрейт :2 334 Kbps
Ширина :672 pixels
Высота :352 pixels
Соотношение сторон :1.909
Частота кадров :25.000 fps
Глубина цвета :8 bits
Подвыборка цветности :4:2:0
Цветовое пространство :YUV
Тип развертки :Progressive
Бит/(Пиксели*Кадры) :0.395
Размер потока :1.17 GiB (86%)
Библиотека кодирования :XviD0050

Аудио #1
Идентификатор :1
Формат :AC-3
Формат/Информация :Audio Coding 3
Идентификатор кодека :2000
Продолжительность :01:11:50.784
Вид битрейта :Constant
Битрейт :384 Kbps
Канал(ы) :6 channels
Расположение каналов :Front: L C R, Side: L R, LFE
Частота :48.0 KHz
Битовая глубина :16 bits
Метод сжатия :Lossy
Размер потока :197 MiB (14%)Тех. данные:
Качество:DVDRip
Продолжительность:01:11:50 час

Формат: AVI
Видео кодек: XviD
Аудио кодек: AC3
Видео: 672 x 352 (1.909), 25.000 fps
b3b308f9feefa1412df85f2370d13677b5cc4bd9Живите в радости (Леонид Миллионщиков, комедия, 1978) [DVDRip, Не требуется] Живите в радости (Леонид Миллионщиков, комедия, 1978) [DVDRip, Не требуется] " />

Аплоадер: Админ, дата: 23-11-2012, 20:10, торрент скачан: 359 раз

Понравилась раздача? Посмотрите эти:
  • Молодая жена (Леонид Менакер, драма, мелодрама, 1978) [DVDRip, Не требуется ...
  • Меж высоких хлебов (Леонид Миллионщиков, комедия, 1970) [DVDRip, Не требует ...
  • Приключения Толи Клюквина (Виктор Эйсымонт, комедия, семейный, 1964) [DVDRi ...
  • Пакет (Владимир Назаров, комедия, приключения, семейный, 1965) [DVDRip, Не ...
  • Баламут (Владимир Роговой, драма, комедия, 1978) [DVDRip, Не требуется]
  • Афоня (Георгий Данелия, драма, мелодрама, комедия, 1975) [DVDRip, Не требуе ...
  • Захар Беркут (Леонид Осыка, драма, история, 1972) [DVDRip, Не требуется]
  • Опасно для жизни! (Леонид Гайдай, комедия, 1985) [DVDRip, Не требуется]
  • Левша (Сергей Овчаров, драма, комедия, 1986) [DVDRip, Не требуется]
  • Комедия ошибок (2 части из 2) (Вадим Гаузнер, комедия, 1978) [DVDRip, Не тр ...
  • Дуэнья (Михаил Григорьев, комедия, история, 1978) [DVDRip, Не требуется]
  • Пес Барбос и необычный кросс / Самогонщики / «Сто грамм» для храбрости (Лео ...
  • Карусель (Михаил Швейцер, комедия, 1970) [DVDRip, Не требуется]
  • Совершенно серьезно (Леонид Гайдай, Эльдар Рязанов, Владимир Семаков, коме ...
  • Спортлото-82 (Леонид Гайдай, комедия, приключения, 1982) [DVDRip, Не требуе ...
  • Уходя - уходи (Виктор Трегубович, комедия, 1978) [DVDRip, Не требуется]
  • Шла собака по роялю (Владимир Грамматиков, мелодрама, 1978) [DVDRip, Не тре ...
  • Старомодная комедия (Эра Савельева, Татьяна Березанцева, мелодрама, 1978) [ ...
  • Деловые люди (полная реставрация) (Леонид Гайдай, комедия, драма, 1962) [DV ...
  • Целуются зори (Сергей Никоненко, комедия, 1978) [DVDRip, Не требуется]
  • Информация
    Посетители, находящиеся в группе Гости, не могут оставлять комментарии к данной публикации.