вход на сайт

Имя пользователя :
Пароль :

Восстановление пароля Регистрация
Драгоценный подарок (Александр Роу, семейный, 1956) [DVDRip, Не требуется]
Рейтинг:
(голосов: 1)



[img]{THEME}/images/logopost.png[/img]



Драгоценный подарок

Год выпуска: 1956
Страна: СССР
Производство: Студия Горького
Жанр: семейный

Режиссёр: Александр Роу
В ролях: Владимир Володин, Галина Степанова, Александр Лебедев, Мария Миронова, Михаил Кузнецов, Николай Горлов, Эммануил Геллер, Татул Дилакян, Вера Орлова, Рина Зеленая

Перевод: Не требуется
Субтитры: Отсутствуют

Описание:
Оригинальный подарок ко дню рождения решил преподнести заядлому рыбаку Карпу Трофимовичу его племянник — во время конкурса рыболовов он подцепил дяде на крючок огромную щуку.


Дополнительно:
MediaInfo ▼Text
Общее
Полное имя :L:3.РаздачаДрагоценный подарокdragocenniy_podarok.avi
Формат :AVI
Размер :1.10 GiB
Продолжительность :01:13:18.920
Общий поток :2 153 Kbps
Программа кодирования :VirtualDubModRus 1.5.10.2 (build 2542/release)
Библиотека кодирования :VirtualDubMod build 2542/release

Видео
Идентификатор :0
Формат :MPEG-4 Visual
Параметр BVOP формата :1
Параметр Qpel формата :No
Параметр GMC формата :0
Параметр Matrix формата :Default (H.263)
Идентификатор кодека :DX50
Продолжительность :1h 13mn 18s 920ms
Битрейт :1 951 Kbps
Ширина :688 pixels
Высота :512 pixels
Соотношение сторон :1.344
Частота кадров :25.000 fps
Глубина цвета :8 bits
Подвыборка цветности :4:2:0
Цветовое пространство :YUV
Тип развертки :Progressive
Бит/(Пиксели*Кадры) :0.222
Размер потока :1 023 MiB (91%)
Библиотека кодирования :DivX503b2676p

Аудио #1
Идентификатор :1
Формат :AC-3
Формат/Информация :Audio Coding 3
Идентификатор кодека :2000
Продолжительность :01:13:18.912
Вид битрейта :Constant
Битрейт :192 Kbps
Канал(ы) :2 channels
Расположение каналов :Front: L R
Частота :48.0 KHz
Битовая глубина :16 bits
Метод сжатия :Lossy
Размер потока :101 MiB (9%)Тех. данные:
Качество:DVDRip
Продолжительность:01:13:10 час

Формат: AVI
Видео коде
6d6f4ee95c480d28629678ea40836e023a040853Драгоценный подарок (Александр Роу, семейный, 1956) [DVDRip, Не требуется] Драгоценный подарок (Александр Роу, семейный, 1956) [DVDRip, Не требуется] " />

Аплоадер: Админ, дата: 23-11-2012, 20:01, торрент скачан: 359 раз

Понравилась раздача? Посмотрите эти:
  • На подмостках сцены (Константин Юдин, драма, комедия, 1956) [DVDRip, Не тре ...
  • Четвертый (Александр Столпер, драма, 1972) [DVDRip, Не требуется]
  • Убийство на улице Данте (Михаил Ромм, драма, 1956) [DVDRip, Не требуется]
  • Прощай, шпана замоскворецкая... (Александр Панкратов, драма, мелодрама, 198 ...
  • Приключения Толи Клюквина (Виктор Эйсымонт, комедия, семейный, 1964) [DVDRi ...
  • Ох, уж эта Настя! (Юрий Победоносцев, семейный, 1972) [DVDRip, Не требуется ...
  • Пакет (Владимир Назаров, комедия, приключения, семейный, 1965) [DVDRip, Не ...
  • Гиперболоид инженера Гарина (Александр Гинцбург, фантастика, 1965) [DVDRip, ...
  • Мама (Элизабета Бостан, мюзикл, фэнтези, семейный, 1976) [DVDRip, Не требуе ...
  • Комиссар (Александр Аскольдов, драма, военный, 1967) [DVDRip, Не требуется] ...
  • Подарок чёрного колдуна (Борис Рыцарев, фэнтези, приключения, семейный, 197 ...
  • Как Иванушка-дурачок за чудом ходил (Надежда Кошеверова, фэнтези, семейный, ...
  • Таинственный остров (Эдуард Пенцлин, фантастика, приключения, семейный, 194 ...
  • Танкер «Дербент» (Александр Файнциммер, приключения, 1940) [DVDRip, Не треб ...
  • Майская ночь, или Утопленница (Александр Роу, фэнтези, комедия, 1952) [DVDR ...
  • Соловей (Надежда Кошеверова, мюзикл, семейный, 1979) [DVDRip, Не требуется] ...
  • Светлая личность (Александр Павловский, мюзикл, комедия, 1989) [DVDRip, Не ...
  • Проделки в старинном духе (Александр Панкратов, комедия, 1986) [DVDRip, Не ...
  • Садко (Александр Птушко, фэнтези, приключения, 1952) [DVDRip, Не требуется] ...
  • Пока бьют часы (Геннадий Васильев, фэнтези, семейный, 1976) [DVDRip, Не тре ...
  • Хозяйка гостиницы (Михаил Названов, комедия, 1956) [DVDRip, Не требуется]
  • [France] Красный шар / Le ballon rouge (Альбер Ламорис, короткометражка, фэ ...
  • Белый клык (Александр Згуриди, приключения, 1947) [DVDRip, Не требуется]
  • Вера, надежда, любовь (Владимир Грамматиков, приключения, 1984) [DVDRip, Не ...
  • В добрый час! (Виктор Эйсымонт, драма, мелодрама, 1956) [DVDRip, Не требует ...
  • Информация
    Посетители, находящиеся в группе Гости, не могут оставлять комментарии к данной публикации.