вход на сайт

Имя пользователя :
Пароль :

Восстановление пароля Регистрация
Большой «Фитиль» (Мери Анджапаридзе, Эдуард Бочаров, Софья Милькина, комедия, 1963) [DVDRip, Не требуется]
Рейтинг:
(голосов: 1)



[img]{THEME}/images/logopost.png[/img]



Большой «Фитиль»

Год выпуска: 1963
Страна: СССР
Производство: Студия Горького, Ленфильм, Мосфильм, Союзмультфильм
Жанр: комедия

Режиссёр: Мери Анджапаридзе, Эдуард Бочаров, Софья Милькина
В ролях: Леонид Быков, Ролан Быков, Вадим Захарченко, Георгий Милляр, Юрий Никулин, Николай Крючков, Юрий Медведев, Геннадий Некрасов, Константин Немоляев, Павел Павленко

Перевод: Не требуется
Субтитры: Отсутствуют

Описание:
В путь оправляется экспресс сатирического направления. Машинист С. Михалков дает прощальный гудок… На первом вагоне надпись — «Дачурка». Далее следуют 8 новелл…


Дополнительно:
MediaInfo ▼Text
Общее
Полное имя :L:3.РаздачаБольшой Фитильolshoi_fitil.avi
Формат :AVI
Размер :1.38 GiB
Продолжительность :01:07:37.600
Общий поток :2 928 Kbps
Программа кодирования :VirtualDubMod 1.5.10.2 (build 2542/release)
Библиотека кодирования :VirtualDub build 30009/release

Видео
Идентификатор :0
Формат :MPEG-4 Visual
Профиль формата :Advanced [email protected]
Параметр BVOP формата :2
Параметр Qpel формата :No
Параметр GMC формата :0
Параметр Matrix формата :Default (H.263)
Идентификатор кодека :XVID
Продолжительность :1h 7mn 37s 600ms
Битрейт :2 726 Kbps
Ширина :704 pixels
Высота :528 pixels
Соотношение сторон :1.333
Частота кадров :25.000 fps
Глубина цвета :8 bits
Подвыборка цветности :4:2:0
Цветовое пространство :YUV
Тип развертки :Progressive
Бит/(Пиксели*Кадры) :0.293
Размер потока :1.29 GiB (93%)
Библиотека кодирования :XviD0050

Аудио #1
Идентификатор :1
Формат :AC-3
Формат/Информация :Audio Coding 3
Идентификатор кодека :2000
Продолжительность :01:07:37.600
Вид битрейта :Constant
Битрейт :192 Kbps
Канал(ы) :1 channel
Расположение каналов :Front: C
Частота :48.0 KHz
Битовая глубина :16 bits
Метод сжатия :Lossy
Размер потока :92.9 MiB (7%)Тех. данные:
Качество:
91f01096223694bcfdf68a63934e9ef07e19a801Большой «Фитиль» (Мери Анджапаридзе, Эдуард Бочаров, Софья Милькина, комедия, 1963) [DVDRip, Не требуется] Большой «Фитиль» (Мери Анджапаридзе, Эдуард Бочаров, Софья Милькина, комедия, 1963) [DVDRip, Не требуется] " />

Аплоадер: Админ, дата: 23-11-2012, 19:10, торрент скачан: 359 раз

Понравилась раздача? Посмотрите эти:
  • На подмостках сцены (Константин Юдин, драма, комедия, 1956) [DVDRip, Не тре ...
  • Если ты прав... (Юрий Егоров, мелодрама, 1963) [DVDRip, Не требуется]
  • Необыкновенное путешествие Мишки Стрекачева (Илья Фрэз, Эдуард Бочаров, сем ...
  • Штрафной удар (Вениамин Дорман, комедия, спорт, 1963) [DVDRip, Не требуется ...
  • Деревня Утка (Борис Бунеев, семейный, 1976) [DVDRip, Не требуется]
  • Оптимистическая трагедия (Самсон Самсонов, драма, военный, история, 1963) [ ...
  • Комиссар (Александр Аскольдов, драма, военный, 1967) [DVDRip, Не требуется] ...
  • Фантазеры (Исаак Магитон, И. Сафарова, детский, 1965) [DVDRip, Не требуется ...
  • Шторм на суше (Эдуард Бочаров, детский, 1975) [TVRip, Не требуется]
  • Чайка (Юлий Карасик, драма, 1972) [DVDRip, Не требуется]
  • Семь нянек (Ролан Быков, комедия, 1962) [DVDRip, Не требуется]
  • Таинственный остров (Эдуард Пенцлин, фантастика, приключения, семейный, 194 ...
  • Сотрудник ЧК (Борис Волчек, боевик, история, 1963) [DVDRip, Не требуется]
  • Чучело (2 части из 2) (Ролан Быков, Аркадий Хайт, драма, 1983) [DVDRip, Не ...
  • Морозко // Королевство кривых зеркал // Финист – Ясный сокол (Александр Роу ...
  • Пропало лето (Ролан Быков, Никита Орлов, комедия, семейный, 1963) [DVDRip, ...
  • Путь к причалу (Георгий Данелия, драма, 1963) [DVDRip, Не требуется]
  • При исполнении служебных обязанностей (Илья Гурин, фантастика, драма, 1963) ...
  • Юность Петра (Сергей Герасимов, драма, биография, 1980) [DVDRip, Не требует ...
  • В начале славных дел (Сергей Герасимов, драма, история, 1980) [DVDRip, Не т ...
  • Полустанок (Борис Барнет, мелодрама, комедия, 1963) [DVDRip, Не требуется]
  • Большой «Фитиль» (М.Анджапаридзе, А.Митта, и др., сатирический альманах, 19 ...
  • Деловые люди (полная реставрация) (Леонид Гайдай, комедия, драма, 1962) [DV ...
  • Хозяин и слуга (Дмитрий Кесаянц, короткометражка, комедия, 1963) [DVDRip, Н ...
  • Истребители (Эдуард Пенцлин, приключения, 1939) [DVDRip, Не требуется]
  • Информация
    Посетители, находящиеся в группе Гости, не могут оставлять комментарии к данной публикации.