вход на сайт

Имя пользователя :
Пароль :

Восстановление пароля Регистрация
Белая акация (Георгий Натансон, комедия, 1958) [DVDRip, Не требуется]
Рейтинг:
(голосов: 1)



[img]{THEME}/images/logopost.png[/img]



Белая акация

Год выпуска: 1958
Страна: СССР
Производство: Молдова Фильм
Жанр: комедия

Режиссёр: Георгий Натансон
В ролях: Михаил Водяной, Евгения Дембская, Идалия Иванова, А. Стародуб, Н. Кочкин, В. Франчук, Муза Крепкогорская, М. Дашевский

Перевод: Не требуется
Субтитры: Отсутствуют

Описание:
Китобойная флотилия уходит в далёкое плавание на промысел, а дома моряков всегда ждут родные, любимые, друзья. Вот и теперь они провожают китобоев. Капитан флотилии, красавец Костя Куприянов, оставляет на берегу невесту Ларису, девицу довольно эффектную внешне, но пустую, хитрую и пошлую по существу. У неё есть другой вздыхатель — Яшка-Буксир, Яшка-доставала, агент по снабжению дефицитным барахлом, обаятельный одесский жулик.


Дополнительно:
MediaInfo ▼Text
Общее
Полное имя :L:3.РаздачаБелая акацияБелая акация (1958).avi
Формат :AVI
Размер :744 MiB
Продолжительность :01:25:05.360
Общий поток :1 223 Kbps
Программа кодирования :VirtualDubModRus 1.5.10.2 (build 2542/release)
Библиотека кодирования :VirtualDubMod build 2542/release

Видео
Идентификатор :0
Формат :MPEG-4 Visual
Профиль формата :Advanced [email protected]
Параметр BVOP формата :2
Параметр Qpel формата :No
Параметр GMC формата :0
Параметр Matrix формата :Default (MPEG)
Идентификатор кодека :XVID
Продолжительность :1h 25mn 5s 360ms
Битрейт :1 085 Kbps
Ширина :640 pixels
Высота :480 pixels
Соотношение сторон :1.333
Частота кадров :25.000 fps
Глубина цвета :8 bits
Подвыборка цветности :4:2:0
Цветовое пространство :YUV
Тип развертки :Progressive
Бит/(Пиксели*Кадры) :0.141
Размер потока :661 MiB (89%)
Библиотека кодирования :XviD0050

Аудио #1
Идентификатор :1
Формат :MPEG Audio
Идентификатор кодека :55
Продолжительность :01:25:05.352
Вид битрейта :Constant
Битрейт :128 Kbps
Канал(ы) :2 channels
Частота :48.0 KHz
Метод сжатия :Lossy
Размер потока :77.9 MiB (10%)Тех. данные:
Качество:DVDRip
Продолжительность:01:25
ab8e7f5052268916bd0939f652b279c34f3abb33Белая акация (Георгий Натансон, комедия, 1958) [DVDRip, Не требуется] Белая акация (Георгий Натансон, комедия, 1958) [DVDRip, Не требуется] " />

Аплоадер: Админ, дата: 23-11-2012, 19:05, торрент скачан: 359 раз

Понравилась раздача? Посмотрите эти:
  • Дружок (Виктор Эйсымонт, семейный, 1958) [DVDRip, Не требуется]
  • Сережа (Георгий Данелия, Игорь Таланкин, драма, 1960) [DVDRip, Не требуется ...
  • Совсем пропащий (Георгий Данелия, приключения, 1973) [DVDRip, Не требуется] ...
  • Опекун (Эдгар Ходжикян, Альберт С. Мкртчян, комедия, 1970) [DVDRip, Не треб ...
  • Опасно для жизни! (Леонид Гайдай, комедия, 1985) [DVDRip, Не требуется]
  • Мистер Икс (Юлий Хмельницкий, мюзикл, мелодрама, комедия, 1958) [DVDRip, Не ...
  • Капитанская дочка (Владимир Каплуновский, драма, 1958) [DVDRip, Не требуетс ...
  • У тихой пристани... (Эдуард Абалов, Тамаз Мелиава, комедия, 1958) [DVDRip, ...
  • Табачный капитан (Игорь Усов, мюзикл, комедия, история, 1972) [DVDRip, Не т ...
  • Майская ночь, или Утопленница (Александр Роу, фэнтези, комедия, 1952) [DVDR ...
  • Ханума (2 части из 2) (Георгий Товстоногов, мюзикл, комедия, 1978) [DVDRip, ...
  • Путь к причалу (Георгий Данелия, драма, 1963) [DVDRip, Не требуется]
  • Будь красивой и молчи / Sois belle et tais-toi (Марк Аллегре, комедия, 1958 ...
  • ЧП – Чрезвычайное происшествие (2 части из 2-х) (Виктор Ивченко, боевик, 19 ...
  • Мой дядюшка / Mon oncle (Жак Тати, комедия, 1958) [DVDRip, Профессиональный ...
  • Шумный день (Анатолий Эфрос, Георгий Натансон, мелодрама, комедия, 1960) [D ...
  • Шофер поневоле (Надежда Кошеверова, комедия, 1958) [DVDRip, Не требуется]
  • Голубая стрела (Леонид Эстрин, боевик, 1958) [DVDRip, Не требуется]
  • Иван Бровкин на целине (Иван Лукинский, комедия, 1958) [DVDRip, Не требуетс ...
  • Мамлюк (Давит Рондели, боевик, мелодрама, приключения, военный, 1958) [DVDR ...
  • Информация
    Посетители, находящиеся в группе Гости, не могут оставлять комментарии к данной публикации.