вход на сайт

Имя пользователя :
Пароль :

Восстановление пароля Регистрация
Близнецы (Константин Юдин, комедия, 1945) [TVRip, Перевод, Не требуется]
Рейтинг:
(голосов: 1)



[img]{THEME}/images/logopost.png[/img]



Близнецы

Год выпуска: 1945
Страна: СССР
Производство: Мосфильм
Жанр: комедия

Режиссёр: Константин Юдин
В ролях: Людмила Целиковская, Вера Орлова, Михаил Жаров, Андрей Тутышкин, Ирина Мурзаева, Павел Шпрингфельд, Дмитрий Павлов, Константин Сорокин, Владимир Грибков, Георгий Светлани

Перевод: Не требуется
Субтитры: Отсутствуют

Описание:
На вокзале потерялись очаровательные близнецы, грудные младенцы. В устройстве их судьбы принимают участие и молодая девушка-электромонтер, и военные моряки, и садовод, и старый профессор психологии. В заботах о малышах каждый находит и свое счастье.


Дополнительно:
MediaInfo ▼Text
Общее
Полное имя :K:2. РАЗДАЧАБлизнецBlizneci.avi
Формат :AVI
Размер :1.45 GiB
Продолжительность :01:19:00.960
Общий поток :2 621 Kbps
Программа кодирования :VirtualDubMod 1.5.10.3 | www.virtualdub-fr.org || (build 2550/release)

Видео
Идентификатор :0
Формат :MPEG-4 Visual
Профиль формата :Advanced [email protected]
Параметр BVOP формата :1
Параметр Qpel формата :No
Параметр GMC формата :0
Параметр Matrix формата :Custom
Идентификатор кодека :XVID
Продолжительность :1h 19mn 0s 960ms
Битрейт :2 387 Kbps
Ширина :688 pixels
Высота :512 pixels
Соотношение сторон :1.344
Частота кадров :25.000 fps
Глубина цвета :8 bits
Подвыборка цветности :4:2:0
Цветовое пространство :YUV
Тип развертки :Progressive
Бит/(Пиксели*Кадры) :0.271
Размер потока :1.32 GiB (91%)
Библиотека кодирования :XviD0065

Аудио #1
Идентификатор :1
Формат :AC-3
Формат/Информация :Audio Coding 3
Идентификатор кодека :2000
Продолжительность :01:19:00.480
Вид битрейта :Constant
Битрейт :224 Kbps
Канал(ы) :2 channels
Расположение каналов :Front: L R
Частота :48.0 KHz
Битовая глубина :16 bits
Метод сжатия :Lossy
Размер потока :127 MiB (9%)Тех. данные:
Качество:TVRip
Продолжительность:&nb
c948d3447d3934ea68a9349c96049f25e20adf99Близнецы (Константин Юдин, комедия, 1945) [TVRip, Перевод, Не требуется] Близнецы (Константин Юдин, комедия, 1945) [TVRip, Перевод, Не требуется] " />

Аплоадер: Админ, дата: 20-11-2012, 16:59, торрент скачан: 359 раз

Понравилась раздача? Посмотрите эти:
  • На подмостках сцены (Константин Юдин, драма, комедия, 1956) [DVDRip, Не тре ...
  • Борец и клоун (Борис Барнет, Константин Юдин, драма, спорт, 1957) [DVDRip, ...
  • Человек, которому везло (Константин Ершов, драма, 1978) [DVDRip, Не требует ...
  • Мир дому твоему (2 части из 2) (Константин Райкин, Аркадий Райкин, Марк Орл ...
  • Воздушный извозчик (Герберт Раппапорт, мюзикл, комедия, 1943) [DVDRip, Не т ...
  • Таинственная находка (Борис Бунеев, детский, приключения, 1954) [DVDRip, Не ...
  • Призрак (Никита Орлов, боевик, триллер, 1991) [TVRip, Не требуется]
  • Опекун (Эдгар Ходжикян, Альберт С. Мкртчян, комедия, 1970) [DVDRip, Не треб ...
  • Мы с вами где-то встречались (Николай Досталь, Андрей Тутышкин, комедия, 19 ...
  • Чудный характер (Константин Воинов, драма, 1970) [DVDRip, Не требуется]
  • Дача (Константин Воинов, комедия, 1974) [DVDRip, Не требуется]
  • Небесный тихоход (Цветной) (Семен Тимошенко, комедия, военный, 1945) [IPTVR ...
  • Танкер «Дербент» (Александр Файнциммер, приключения, 1940) [DVDRip, Не треб ...
  • Смелые люди (Константин Юдин, боевик, драма, военный, 1950) [DVDRip, Не тре ...
  • Шельменко-денщик (Андрей Тутышкин, мюзикл, комедия, 1971) [DVDRip, Не требу ...
  • Стряпуха (Эдмонд Кеосаян, комедия, 1965) [DVDRip, Не требуется]
  • Степанова памятка (Константин Ершов, фэнтези, 1976) [DVDRip, Не требуется]
  • Девушка с характером ( Константин Юдин, Комедия,1939) [TVRip,Оригинал]
  • Беспокойное хозяйство (Михаил Жаров, мюзикл, комедия, военный, 1945) [DVDRi ...
  • Большой «Фитиль» (Мери Анджапаридзе, Эдуард Бочаров, Софья Милькина, комеди ...
  • Запасной игрок (Семен Тимошенко, комедия, спорт, 1955) [DVDRip, Не требуетс ...
  • Шведская спичка (Константин Юдин, комедия, детектив, 1955) [DVDRip, Не треб ...
  • Комедия строгого режима (Михаил Григорьев, Владимир Студенников, Комедия, 1 ...
  • Сердца четырех (Константин Юдин, мелодрама, комедия, 1941) [DVDRip, Не треб ...
  • Как рождаются тосты (Всеволод Массино, Оскар Герц, Андрей Тутышкин, коротко ...
  • Информация
    Посетители, находящиеся в группе Гости, не могут оставлять комментарии к данной публикации.