вход на сайт

Имя пользователя :
Пароль :

Восстановление пароля Регистрация
Донская повесть (Владимир Фетин, драма, 1964) [DVDRip, Не требуется]
Рейтинг:
(голосов: 1)



[img]{THEME}/images/logopost.png[/img]



Донская повесть

Год выпуска: 1964
Страна: СССР
Производство: Ленфильм
Жанр: драма

Режиссёр: Владимир Фетин
В ролях: Евгений Леонов, Людмила Чурсина, Александр Блинов, Борис Новиков, Николай Мельников, Валентина Владимирова, Алексей Грибов, Лилия Гурова, Сергей Ляхницкий, Леонид Пархоменко

Перевод: Не требуется
Субтитры: Отсутствуют

Описание:
В центре фильма — судьба пулеметчика Якова Шибалка. Возлюбленная красного казака, мать его ребенка оказывается шпионкой белых. Об этом она признается любимому мужу при родах. И революционный долг оказывается превыше всего…


Дополнительно:
MediaInfo ▼Text
Общее
Полное имя :L:3.РаздачаДонская повестьDonskaja_povest`_DVDRip.avi
Формат :AVI
Размер :1.37 GiB
Продолжительность :01:29:49.160
Общий поток :2 179 Kbps
Программа кодирования :VirtualDubModRus 1.5.10.2 (build 2542/release)
Библиотека кодирования :VirtualDubMod build 2542/release

Видео
Идентификатор :0
Формат :MPEG-4 Visual
Параметр BVOP формата :1
Параметр Qpel формата :No
Параметр GMC формата :0
Параметр Matrix формата :Default (H.263)
Идентификатор кодека :DX50
Продолжительность :1h 29mn 49s 160ms
Битрейт :1 977 Kbps
Ширина :704 pixels
Высота :528 pixels
Соотношение сторон :1.333
Частота кадров :25.000 fps
Глубина цвета :8 bits
Подвыборка цветности :4:2:0
Цветовое пространство :YUV
Тип развертки :Progressive
Бит/(Пиксели*Кадры) :0.213
Размер потока :1.24 GiB (91%)
Библиотека кодирования :DivX503b2676p

Аудио #1
Идентификатор :1
Формат :AC-3
Формат/Информация :Audio Coding 3
Идентификатор кодека :2000
Продолжительность :01:29:49.152
Вид битрейта :Constant
Битрейт :192 Kbps
Канал(ы) :2 channels
Расположение каналов :Front: L R
Частота :48.0 KHz
Битовая глубина :16 bits
Метод сжатия :Lossy
Размер потока :123 MiB (9%)Тех. данные:
Качество:DVDRip
Продолжительность:&nbs
5163c8a9ee48344365f9cc1e46f227182b3e044eДонская повесть (Владимир Фетин, драма, 1964) [DVDRip, Не требуется] Донская повесть (Владимир Фетин, драма, 1964) [DVDRip, Не требуется] " />

Аплоадер: Админ, дата: 5-11-2012, 22:45, торрент скачан: 359 раз

Понравилась раздача? Посмотрите эти:
  • Жаворонок (Никита Курихин, Леонид Менакер, драма, военный, 1964) [DVDRip, Н ...
  • Журавушка (Николай Москаленко, драма, мелодрама, 1968) [DVDRip, Не требуетс ...
  • Открытая книга (Владимир Фетин, драма, биография, 1973) [DVDRip, Не требуе ...
  • Нейтральные воды (Владимир Беренштейн, драма, 1968) [DVDRip, Не требуется]
  • Ко мне, Мухтар! (Семен Туманов, В. Тиунова, драма, 1964) [DVDRip, Не требуе ...
  • Дама с собачкой (Иосиф Хейфиц, драма, мелодрама, 1959) [DVDRip, Не требуетс ...
  • Четвертый (Александр Столпер, драма, 1972) [DVDRip, Не требуется]
  • Конец "Сатурна" (Виллен Азаров, Мосфильм, 1967) [DVDRip, Не требуется]
  • Приключения Толи Клюквина (Виктор Эйсымонт, комедия, семейный, 1964) [DVDRi ...
  • Пакет (Владимир Назаров, комедия, приключения, семейный, 1965) [DVDRip, Не ...
  • На графских развалинах (Владимир Скуйбин, приключения, семейный, 1957) [DVD ...
  • Лес (Владимир Мотыль, драма, 1980) [DVDRip, Не требуется]
  • Тропой бескорыстной любви (Агаси Бабаян, драма, 1972) [DVDRip, Не требуется ...
  • Повесть о настоящем человеке (Александр Столпер, драма, военный, 1948) [DVD ...
  • Порожний рейс (Владимир Венгеров, драма, 1962) [DVDRip, Не требуется]
  • Ты и я (Лариса Шепитько, драма, 1971) [DVDRip, Не требуется]
  • Чайка (Юлий Карасик, драма, 1972) [DVDRip, Не требуется]
  • Печники (Виктор Храмов, драма, 1982) [DVDRip, Не требуется]
  • Бабушки надвое сказали (Валерий Харченко, Юрий Клебанов, комедия, 1979) [DV ...
  • Сотрудник ЧК (Борис Волчек, боевик, история, 1963) [DVDRip, Не требуется]
  • Председатель (2 части из 2) (Алексей Салтыков, драма, 1964) [DVDRip, Не тре ...
  • Вера, надежда, любовь (Владимир Грамматиков, приключения, 1984) [DVDRip, Не ...
  • Ключи от неба (Виктор Иванов, комедия, 1964) [DVDRip, Не требуется]
  • Кутузов (Владимир Петров, драма, 1943) [DVDRip, Не требуется]
  • Мексиканец (Владимир Каплуновский, драма, 1955) [DVDRip, Не требуется]
  • Информация
    Посетители, находящиеся в группе Гости, не могут оставлять комментарии к данной публикации.