вход на сайт

Имя пользователя :
Пароль :

Восстановление пароля Регистрация
Болотные солдаты (Александр Мачерет, драма, военный, 1938) [DVDRip, Не требуется]
Рейтинг:
(голосов: 1)



[img]{THEME}/images/logopost.png[/img]



Болотные солдаты

Год выпуска: 1938
Страна: СССР
Производство: Мосфильм
Жанр: драма, военный

Режиссёр: Александр Мачерет
В ролях: Олег Жаков, Семен Межинский, С. Широкова, И. Кудряцев, Василий Ванин, С. Муратов, Алексей Консовский, Алексей Грибов, Иван Коваль-Самборский, Иван Кудрявцев

Перевод: Не требуется
Субтитры: Отсутствуют

Описание:
О сопротивлении немецких коммунистов фашистскому режиму в Германии 30-х годов. «Болотными солдатами» называли узников концентрационных лагерей. Коммунист-подпольщик попадает в такой лагерь. Ценой собственной жизни друзья помогают ему бежать. Что Пауль будет делать дальше…


Дополнительно:
MediaInfo ▼Text
Общее
Полное имя :M:ФильмыРАЗДАЧАБолотные солдатыBolotnie_soldati_DVDRip.avi
Формат :AVI
Размер :1.09 GiB
Продолжительность :01:06:02.368
Общий поток :2 369 Kbps
Программа кодирования :VirtualDubModRus 1.5.10.2 (build 2542/release)
Библиотека кодирования :VirtualDubMod build 2542/release

Видео
Идентификатор :0
Формат :MPEG-4 Visual
Параметр BVOP формата :1
Параметр Qpel формата :No
Параметр GMC формата :0
Параметр Matrix формата :Default (H.263)
Идентификатор кодека :DX50
Продолжительность :1h 6mn 2s 360ms
Битрейт :2 167 Kbps
Ширина :704 pixels
Высота :528 pixels
Соотношение сторон :1.333
Частота кадров :25.000 fps
Глубина цвета :8 bits
Подвыборка цветности :4:2:0
Цветовое пространство :YUV
Тип развертки :Progressive
Бит/(Пиксели*Кадры) :0.233
Размер потока :1 024 MiB (91%)
Библиотека кодирования :DivX503b2676p

Аудио #1
Идентификатор :1
Формат :AC-3
Формат/Информация :Audio Coding 3
Идентификатор кодека :2000
Продолжительность :01:06:02.368
Вид битрейта :Constant
Битрейт :192 Kbps
Канал(ы) :2 channels
Расположение каналов :Front: L R
Частота :48.0 KHz
Битовая глубина :16 bits
Метод сжатия :Lossy
Размер потока :90.7 MiB (8%)Тех. данные:
Качест
3d0eea62aedaab6bbe8317e83adcb83390d71b8cБолотные солдаты (Александр Мачерет, драма, военный, 1938) [DVDRip, Не требуется] Болотные солдаты (Александр Мачерет, драма, военный, 1938) [DVDRip, Не требуется] " />

Аплоадер: Админ, дата: 5-11-2012, 22:32, торрент скачан: 359 раз

Понравилась раздача? Посмотрите эти:
  • Жаворонок (Никита Курихин, Леонид Менакер, драма, военный, 1964) [DVDRip, Н ...
  • На подмостках сцены (Константин Юдин, драма, комедия, 1956) [DVDRip, Не тре ...
  • Бой под Соколом (Александр Разумный, военный, 1942) [DVDRip, Не требуется]
  • Летят журавли (Михаил Калатозов, драма, мелодрама, военный, 1957) [DVDRip, ...
  • Четвертый (Александр Столпер, драма, 1972) [DVDRip, Не требуется]
  • Парень из нашего города (Александр Столпер, Борис Иванов, драма, военный, 1 ...
  • Живые и мертвые (2 части из 2) (Александр Столпер, драма, военный, 1963) [D ...
  • Друг мой, Колька!.. (Александр Митта, Алексей Салтыков, драма, 1961) [DVDRi ...
  • Оптимистическая трагедия (Самсон Самсонов, драма, военный, история, 1963) [ ...
  • Комиссар (Александр Аскольдов, драма, военный, 1967) [DVDRip, Не требуется] ...
  • Тропой бескорыстной любви (Агаси Бабаян, драма, 1972) [DVDRip, Не требуется ...
  • Родина зовет (Александр Мачерет, военный, 1936) [DVDRip, Не требуется]
  • Повесть о настоящем человеке (Александр Столпер, драма, военный, 1948) [DVD ...
  • Ты и я (Лариса Шепитько, драма, 1971) [DVDRip, Не требуется]
  • Майская ночь, или Утопленница (Александр Роу, фэнтези, комедия, 1952) [DVDR ...
  • Смелые люди (Константин Юдин, боевик, драма, военный, 1950) [DVDRip, Не тре ...
  • Путь к причалу (Георгий Данелия, драма, 1963) [DVDRip, Не требуется]
  • Красная площадь (Василий Ордынский, драма, военный, 1971) [DVDRip, Не требу ...
  • Садко (Александр Птушко, фэнтези, приключения, 1952) [DVDRip, Не требуется] ...
  • Тихий Дон (3 части из 3) (Сергей Герасимов, драма, военный, 1957) [DVDRip, ...
  • Донская повесть (Владимир Фетин, драма, 1964) [DVDRip, Не требуется]
  • Драгоценный подарок (Александр Роу, семейный, 1956) [DVDRip, Не требуется]
  • Р.В.С. (Алексей Мороз, военный, 1977) [DVDRip, (2х)Оригинал (русский)]
  • Адмирал Нахимов (Всеволод Пудовкин, драма, военный, биография, история, 194 ...
  • Моонзунд (2 части из 2) (Александр Муратов, драма, мелодрама, военный, исто ...
  • Информация
    Посетители, находящиеся в группе Гости, не могут оставлять комментарии к данной публикации.