вход на сайт

Имя пользователя :
Пароль :

Восстановление пароля Регистрация
Вавилон XX (Иван Миколайчук, драма, 1983) [DVDRip, Профессиональный (полное дублирование)+оригинал]
Рейтинг:
(голосов: 1)



[img]{THEME}/images/logopost.png[/img]



Вавилон XX

Год выпуска: 1983
Страна: Россия
Производство: Студия Довженко
Жанр: драма

Режиссёр: Иван Миколайчук
В ролях: Иван Миколайчук, Любовь Полищук, Лесь Сердюк, Ярослав Гаврилюк, Борислав Брондуков, Таисия Литвиненко.

Перевод: Профессиональный (полное дублирование)+оригинал
Субтитры: Отсутствуют

Описание:
Тихое украинское селение Вавилон обошли стороной веяния новой эпохи. Не коснулась его и революция. Жизнь шла своим чередом до тех пор, пока в родные края не вернулся матрос с «Авроры» Клим Синица, чтобы основать коммуну. Сельчане к идеям коммунар отнеслись равнодушно. Даже местный философ Фабиан не проявил к ним интереса. Но богачам оказались не по нраву революционные порядки. Не желая расставаться с нажитым богатством, они решили расправиться с дерзкими гонцами нового времени…


Дополнительно:
MediaInfo ▼Text
Общее
Полное имя :J:Кинокопилка.РуРАЗДАЧАВавилон XXvavilon_XX.avi
Формат :AVI
Размер :1.37 GiB
Продолжительность :01:34:32.088
Общий поток :2 077 Kbps
Программа кодирования :FairUse Wizard - http://fairusewizard.com
Библиотека кодирования :The best and REALLY easy backup tool

Видео
Идентификатор :0
Формат :MPEG-4 Visual
Параметр BVOP формата :1
Параметр Qpel формата :No
Параметр GMC формата :0
Параметр Matrix формата :Default (H.263)
Идентификатор кодека :DX50
Продолжительность :1h 34mn 32s 80ms
Битрейт :1 807 Kbps
Ширина :688 pixels
Высота :512 pixels
Соотношение сторон :1.344
Частота кадров :25.000 fps
Глубина цвета :8 bits
Подвыборка цветности :4:2:0
Цветовое пространство :YUV
Тип развертки :Progressive
Бит/(Пиксели*Кадры) :0.205
Размер потока :1.19 GiB (87%)
Библиотека кодирования :DivX503b2816p

Аудио #1
Идентификатор :1
Формат :MPEG Audio
Идентификатор кодека :55
Продолжительность :01:34:32.088
Вид битрейта :Constant
Битрейт :128 Kbps
Канал(ы) :2 channels
Частота :48.0 KHz
Метод сжатия :Lossy
Размер потока :86.5 MiB (6%)

Аудио #2
Идентификатор  
dafcbf013bf19a6a8094654e6dcd9ded42549d16Вавилон XX (Иван Миколайчук, драма, 1983) [DVDRip, Профессиональный (полное дублирование)+оригинал] Вавилон XX (Иван Миколайчук, драма, 1983) [DVDRip, Профессиональный (полное дублирование)+оригинал] " />

Аплоадер: Админ, дата: 28-10-2012, 00:01, торрент скачан: 359 раз

Понравилась раздача? Посмотрите эти:
  • Кукарача (Кети Долидзе, Сико Долидзе, драма, 1982) [DVDRip, Профессиональны ...
  • Всадник без головы (Владимир Вайншток, мелодрама, приключения, вестерн, 197 ...
  • Черный принц Аджуба (Шаши Капур, Геннадий Васильев, фэнтези, приключения, 1 ...
  • Тоска (Фрунзе Довлатян, драма, 1990) [DVDRip, Профессиональный (полное дубл ...
  • Украденный поезд (Владимир Янчев, драма, 1971) [DVDRip, Профессиональный (п ...
  • Академия пана Кляксы (2 части из 2) (Кшиштоф Градовский, фэнтези, семейный, ...
  • Захар Беркут (Леонид Осыка, драма, история, 1972) [DVDRip, Не требуется]
  • Назови пароль! / U gori raste zelen bor (Антун Врдоляк, драма, военный, 197 ...
  • Легенда о княгине Ольге (Юрий Ильенко, драма, история, 1983) [DVDRip, Не тр ...
  • Разборки в маленьком Токио / Showdown in Little Tokyo (Марк Л. Лестер, боев ...
  • Повесть о «Неистовом» (Борис Бабочкин, драма, военный, 1947) [DVDRip, Перев ...
  • Пропавшая грамота (Борис Ивченко, фэнтези, комедия, 1972) [DVDRip, Професси ...
  • Праздник святого Йоргена (Яков Протазанов, комедия, 1930) [DVDRip, Професси ...
  • Приключения маленького Мука (Елизавета Кимягарова, мюзикл, семейный, 1983) ...
  • Вальсирующие / Les valseuses (Бертран Блие, драма, комедия, криминал, 1966) ...
  • Легенда о княгине Ольге (Юрий Ильенко, драма, история, 1983) [DVDRip, Ориги ...
  • Мальчишки с улицы Пал / A pal-utcai fiuk (Золтан Фабри, драма, 1968) [DVDRi ...
  • Огни рампы / Limelight (Чарльз Чаплин, драма, мелодрама, комедия, музыка, 1 ...
  • Пассажирка / Pasazerka (Анджей Мунк, Витольд Лесевич, драма, военный, истор ...
  • Братья по крови / Blutsbruder (Вернер В. Валльрот, драма, вестерн, 1975) [D ...
  • Информация
    Посетители, находящиеся в группе Гости, не могут оставлять комментарии к данной публикации.