вход на сайт

Имя пользователя :
Пароль :

Восстановление пароля Регистрация
Собака на сене (Ян Фрид, Музыкальная Комедия, 1977) [DVDRip, Не требуется]
Рейтинг:
(голосов: 1)



[img]{THEME}/images/logopost.png[/img]



Собака на сене

✥ Год выпуска: 1977
✥ Страна: СССР
✥ Производство: Парадиз Медиа
✥ Жанр: Музыкальная Комедия

✥ Режиссёр: Ян Фрид
✥ В ролях: Маргарита Терехова, Михаил Боярский, Армен Джигарханян, Елена Проклова, Зинаида Шарко, Виктор Ильичев, Игорь Дмитриев, Николай Караченцов, Гелена Ивлиева, Алексей Кожевников, Виталий Леонов, Федор Никитин, Эрнст Романов, Вадим Михайлов, Роман Фурман

✥ Перевод: Не требуется
✥ Субтитры: Отсутствуют

✥ Описание: Богатая и знатная сеньора Диана терзается сомнениями: ей нужно выбрать между достойными ее руки женихами и личным секретарем - красавцем и ловеласом. А тот, в свою очередь, не может решить, кто ему больше по сердцу - его обворожительная хозяйка или ее прелестная служанка…



✥ Премьера (мир): 1 января 1978
✥ Релиз на DVD: 1 апреля 2011, «Парадиз Медиа»

✥ Качество: DVDRip
✥ Продолжительность: 02:08:43

✥ Формат: AVI
✥ Видео кодек: XviD
✥ Аудио кодек: MP3
✥ Видео: 640x480 (4:3), 25 fps, ~1471 kbps avg, 0.192 bit/pixel
✥ Аудио: 48 kHz, MPEG Layer 3, 2 ch, ~128.00 kbps avg

"Media Info:" ▼General
Format : AVI
Format/Info : Audio Video Interleave
File size : 1.45 GiB
Duration : 2h 8mn
Overall bit rate : 1 609 Kbps
Director : zim2001
Writing application : VirtualDubMod 1.5.10.2 (build 2540/release)

Video
ID : 0
Format : MPEG-4 Visual
Format profile : Advanced [email protected]
Format settings, BVOP : 2
Format settings, QPel : No
Format settings, GMC : No warppoints
Format settings, Matrix : Custom
Codec ID : XVID
Codec ID/Hint : XviD
Duration : 2h 8mn
Bit rate : 1 471 Kbps
Width : 640 pixels
Height : 480 pixels
Display aspect ratio : 4:3
Frame rate : 25.000 fps
Color space : YUV
Chroma subsampling : 4:2:0
Bit depth : 8 bits
Scan type : Progressive
Compression mode : Lossy
Bits/(Pixel*Frame) : 0.192
Stream size : 1.32 GiB (91%)
Writing library : XviD 56

Audio
ID : 1
Format : MPEG Audio
Format version : Version 1
Format profile : Layer 3
Codec ID : 55
Codec ID/Hint : MP3
Duration : 2h 8mn
Bit rate mode : Constant
Bit rate : 128 Kbps
Channel(s) : 2 channels
Sampling rate : 48.0 KHz
Compression mode : Lossy
Delay relative to video : 264ms
Stream size : 118 MiB (8%)
Alignment : Aligned on interleaves
Interleave, duration : 40 ms (1.00 video frame)
Interleave, preload duration : 504 ms
Writing library : LAME3.98r
Encoding settings : -m s -V 4 -q 2 -lowpass 17 -b 128


7e8e58a32dadd21b07e188d9d08e8eb92812d30eСобака на сене (Ян Фрид, Музыкальная Комедия, 1977) [DVDRip, Не требуется] Собака на сене (Ян Фрид, Музыкальная Комедия, 1977) [DVDRip, Не требуется] " />

Аплоадер: Админ, дата: 27-08-2012, 00:32, торрент скачан: 359 раз

Понравилась раздача? Посмотрите эти:
  • Непристойная комедия / InAPPropriate Comedy (Винс Оффер, комедия, 2013) [DV ...
  • Решала (Роман Асхаев, Драма,Криминал, 2012) [WEB-DLRip, Не требуется]
  • Альбатрос / Albatross (Найал МакКормик, Драма, 2011) [DVDRip, Профессиональ ...
  • [EN] Команда: На пути Аллаха / Takiye: Allah yolunda (2010, Бен Вербонг, тр ...
  • Новые парни турбо / New Kids Turbo (Штефен Хаарс, Боевик, комедия, 2010) [H ...
  • Эрик Викинг / Erik the Viking (Терри Джонс, фэнтези, комедия, приключения, ...
  • Мой парень – псих / Silver Linings Playbook (Дэвид О. Расселл, Драма, мелод ...
  • Чемпионат Европы 2012 / Группа D / 1-й тур / Украина - Швеция / Спорт 1 [11 ...
  • Собака на сене (Реставрирован) (Ян Фрид, мюзикл, комедия, 1977) [DVDRip, Не ...
  • Последняя сказка Риты (Рената Литвинова, Фентези, драма, детектив, 2012) [D ...
  • Собака на сене (Ян Фрид) [1977, музыкальная комедия, DVDRip (полная реставр ...
  • Собака на сене (Ян Фрид, музыкальная комедия, оперетта, 1977) [DVD9, оригин ...
  • Собака на сене (Ян Фрид/музыкальная комедия/1977 г.) [DVDRip-AVC, Оригинал ...
  • Неделя в NBA с В.Гомельским / НТВ+ [28.06.2011, SD, XviD, RU, SAT]
  • Вскрытие инопланетянина/Alien Autopsy (Джонни Кэмпбелл, Комедия, фантастика ...
  • Романтики / The Romantics (Галт Нидерхоффер, Драма, мелодрама, комедия, 201 ...
  • Чемпионат Европы 2012 / Группа B / 1-й тур / Германия - Португалия / Спорт ...
  • Товарищеский матч 2012 / АмаЗулу (ЮАР) - Манчестер Юнайтед (Англия) / MU TV ...
  • Мгновение любви / Here (Браден Кинг, Драма, мелодрама, приключения, 2011) [ ...
  • Глушь / Resurrection County (Matt Zettell, ужасы, триллер, 2008) [DVDRip, П ...
  • Информация
    Посетители, находящиеся в группе Гости, не могут оставлять комментарии к данной публикации.