вход на сайт

Имя пользователя :
Пароль :

Восстановление пароля Регистрация
Король манежа (Юрий Чулюкин, семейный, 1970) [DVDRip, Не требуется]
Рейтинг:
(голосов: 1)



[img]{THEME}/images/logopost.png[/img]



Король манежа

Год выпуска: 1970
Страна: Россия
Производство: Мосфильм
Жанр: семейный

Режиссёр: Юрий Чулюкин
В ролях: Иван Кудрявцев, Владимир Пицек, Эдуард Аберт, Александр Кашперов, Виктор Кулаков, Павел Шпрингфельд, Михаил Суворов, Геннадий Крашенинников, Виктор Уральский, Владимир Носик

Перевод: Не требуется
Субтитры: Отсутствуют

Описание:
Однажды в цирк для номера с медведями привезли больного медвежонка. Профессиональные дрессировщики сразу «забраковали» животное, но саксофонист Коля, мечтавший заняться дрессурой, пожалел маленького Гошу и потратил годы, чтобы сделать из него настоящую звезду цирка с мировым именем.

После долгих лет, прожитых в цирке, медведь Гоша случайно оказывается в лесу. Заметив пропажу, служитель цирка Михеев вместе с местным охотником отправляется на поиски своего любимца…


Дополнительно:
MediaInfo ▼Text
Общее
Полное имя :J:Кинокопилка.РуРАЗДАЧАКороль манежаkorol.manezha.avi
Формат :AVI
Размер :1.15 GiB
Продолжительность :01:08:21.200
Общий поток :2 407 Kbps
Библиотека кодирования :VirtualDub build 32706/release

Видео
Идентификатор :0
Формат :MPEG-4 Visual
Профиль формата :Advanced [email protected]
Параметр BVOP формата :1
Параметр Qpel формата :No
Параметр GMC формата :0
Параметр Matrix формата :Default (H.263)
Идентификатор кодека :DX50
Продолжительность :1h 8mn 21s 200ms
Битрейт :2 269 Kbps
Ширина :720 pixels
Высота :320 pixels
Соотношение сторон :2.250
Частота кадров :25.000 fps
Глубина цвета :8 bits
Подвыборка цветности :4:2:0
Цветовое пространство :YUV
Тип развертки :Progressive
Бит/(Пиксели*Кадры) :0.394
Размер потока :1.08 GiB (94%)
Библиотека кодирования :XviD0050

Аудио #1
Идентификатор :1
Формат :MPEG Audio
Идентификатор кодека :55
Продолжительность :01:08:21.200
Вид битрейта :Constant
Битрейт :128 Kbps
Канал(ы) :1 channel
Частота :48.0 KHz
Метод сжатия :Lossy
Размер потока :62.6 MiB (5%)Тех. данные:
Качество:DV
6936bdcac6663d79204c2600d1d94ecf464ab911Король манежа (Юрий Чулюкин, семейный, 1970) [DVDRip, Не требуется] Король манежа (Юрий Чулюкин, семейный, 1970) [DVDRip, Не требуется] " />

Аплоадер: Админ, дата: 1-06-2012, 22:38, торрент скачан: 359 раз

Понравилась раздача? Посмотрите эти:
  • Дружок (Виктор Эйсымонт, семейный, 1958) [DVDRip, Не требуется]
  • Если ты прав... (Юрий Егоров, мелодрама, 1963) [DVDRip, Не требуется]
  • Вас вызывает Таймыр (Алексей Коренев, комедия, 1970) [DVDRip, Не требуется] ...
  • Начало (Глеб Панфилов, мелодрама, комедия, 1970) [DVDRip, Не требуется]
  • Зеленые цепочки (Григорий Аронов, приключения, 1970) [DVDRip, Не требуется] ...
  • Два дня чудес (Лев Мирский, комедия, 1970) [DVDRip, Не требуется]
  • Тайна железной двери (Михаил Юзовский, фантастика, приключения, семейный, 1 ...
  • Путь к сердцу (Виктор Ивченко, мелодрама, 1970) [DVDRip, Не требуется]
  • Ох, уж эта Настя! (Юрий Победоносцев, семейный, 1972) [DVDRip, Не требуется ...
  • Пакет (Владимир Назаров, комедия, приключения, семейный, 1965) [DVDRip, Не ...
  • Гиперболоид инженера Гарина (Александр Гинцбург, фантастика, 1965) [DVDRip, ...
  • Волшебная сила (Наум Бирман, мюзикл, комедия, семейный, 1970) [DVDRip, Не т ...
  • Опекун (Эдгар Ходжикян, Альберт С. Мкртчян, комедия, 1970) [DVDRip, Не треб ...
  • Чудный характер (Константин Воинов, драма, 1970) [DVDRip, Не требуется]
  • Карусель (Михаил Швейцер, комедия, 1970) [DVDRip, Не требуется]
  • Неподдающиеся (Юрий Чулюкин, комедия, 1959) [DVDRip, Не требуется]
  • Соловей (Надежда Кошеверова, мюзикл, семейный, 1979) [DVDRip, Не требуется] ...
  • Пропало лето (Ролан Быков, Никита Орлов, комедия, семейный, 1963) [DVDRip, ...
  • Приключения желтого чемоданчика (Илья Фрэз, комедия, семейный, 1970) [DVDRi ...
  • Сказка о царе Салтане (Александр Птушко, фэнтези, семейный, 1967) [DVDRip, ...
  • Король-олень (Павел Арсенов, мюзикл, фэнтези, комедия, семейный, 1969) [DVD ...
  • После дождичка, в четверг... (Михаил Юзовский, семейный, 1987) [DVDRip, Не ...
  • В лесах под Ковелем (3 части из 3) (Юрий Тупицкий, военный, история, 1984) ...
  • Тайна железной двери (Михаил Юзовский, Фантастика, Приключения, Семейный, 1 ...
  • Комедия строгого режима (Михаил Григорьев, Владимир Студенников, Комедия, 1 ...
  • Информация
    Посетители, находящиеся в группе Гости, не могут оставлять комментарии к данной публикации.