вход на сайт

Имя пользователя :
Пароль :

Восстановление пароля Регистрация
Хозяин и слуга (Дмитрий Кесаянц, короткометражка, комедия, 1963) [DVDRip, Не требуется]
Рейтинг:
(голосов: 1)



[img]{THEME}/images/logopost.png[/img]



Хозяин и слуга

Год выпуска: 1963
Страна: Армения
Производство: Арменфильм
Жанр: короткометражка, комедия

Режиссёр: Дмитрий Кесаянц
В ролях: Фаддей Сарьян, Фрунзе Мкртчян, Сос Саркисян

Перевод: Не требуется
Субтитры: Отсутствуют

Описание:
Как находчивый слуга перехитрил своего скупого хозяина.


Дополнительно:
MediaInfo ▼Text
Общее
Полное имя :J:Хозяин и слугаHozjain_i_sluga_DVDRip.avi
Формат :AVI
Размер :350 MiB
Продолжительность :00:20:38.520
Общий поток :2 370 Kbps
Программа кодирования :VirtualDubModRus 1.5.10.2 (build 2542/release)
Библиотека кодирования :VirtualDubMod build 2542/release

Видео
Идентификатор :0
Формат :MPEG-4 Visual
Параметр BVOP формата :1
Параметр Qpel формата :No
Параметр GMC формата :0
Параметр Matrix формата :Default (H.263)
Идентификатор кодека :DX50
Продолжительность :20mn 38s 520ms
Битрейт :2 169 Kbps
Ширина :704 pixels
Высота :528 pixels
Соотношение сторон :1.333
Частота кадров :25.000 fps
Глубина цвета :8 bits
Подвыборка цветности :4:2:0
Цветовое пространство :YUV
Тип развертки :Progressive
Бит/(Пиксели*Кадры) :0.233
Размер потока :320 MiB (91%)
Библиотека кодирования :DivX503b2676p

Аудио #1
Идентификатор :1
Формат :AC-3
Формат/Информация :Audio Coding 3
Идентификатор кодека :2000
Продолжительность :00:20:38.464
Вид битрейта :Constant
Битрейт :192 Kbps
Канал(ы) :2 channels
Расположение каналов :Front: L R
Частота :48.0 KHz
Битовая глубина :16 bits
Метод сжатия :Lossy
Размер потока :28.3 MiB (8%)Тех. данные:
Качество:DVDRip
Продолжительность:00:20:30 час

Формат: AVI
Видео кодек: DivX
Аудио кодек: AC3
Видео: 704 x 528 (4:3), 25.000 fps, 2 169 Kbps, 0.233 bit/pixel
Аудио : 48.0 KHz, Audio Coding 3, 2 channels (Front: L R), 192 Kbps"ВНИМАНИЕ! Уважаемый Пользователь трекера, прочти п
50064ba3d451a045fa10ade75c4875c74a184397Хозяин и слуга (Дмитрий Кесаянц, короткометражка, комедия, 1963) [DVDRip, Не требуется] Хозяин и слуга (Дмитрий Кесаянц, короткометражка, комедия, 1963) [DVDRip, Не требуется] " />

Аплоадер: Админ, дата: 31-05-2012, 01:07, торрент скачан: 359 раз

Понравилась раздача? Посмотрите эти:
  • Где это видано, где это слыхано (Валентин Горлов, короткометражка, комедия, ...
  • Штрафной удар (Вениамин Дорман, комедия, спорт, 1963) [DVDRip, Не требуется ...
  • Хозяин тайги (Владимир Назаров, криминал, 1968) [DVDRip, Не требуется]
  • Сапоги (Владимир Немоляев, короткометражка, драма, комедия, 1957) [DVDRip, ...
  • Драма (Герман Ливанов, короткометражка, комедия, 1960) [DVDRip, Не требуетс ...
  • Оптимистическая трагедия (Самсон Самсонов, драма, военный, история, 1963) [ ...
  • Печёнка (Арман Манарян, короткометражка, комедия, 1962) [DVDRip, Не требует ...
  • Шелковица / Молодость. Выпуск 2 (Геннадий Мелконян, Андрей Ермаш, Автандил ...
  • Рысь выходит на тропу (Агаси Бабаян, комедия, 1983) [DVDRip, Не требуется]
  • Солдат и слон (Дмитрий Кесаянц, комедия, военный, 1977) [DVDRip, Не требует ...
  • Сотрудник ЧК (Борис Волчек, боевик, история, 1963) [DVDRip, Не требуется]
  • Пропало лето (Ролан Быков, Никита Орлов, комедия, семейный, 1963) [DVDRip, ...
  • Путь к причалу (Георгий Данелия, драма, 1963) [DVDRip, Не требуется]
  • Старомодная комедия (Эра Савельева, Татьяна Березанцева, мелодрама, 1978) [ ...
  • Похождения Насреддина (Наби Ганиев, комедия, 1946) [DVDRip, Не требуется]
  • Полустанок (Борис Барнет, мелодрама, комедия, 1963) [DVDRip, Не требуется]
  • 01-99 (Амаси Мартиросян, короткометражка, комедия, 1959) [DVDRip, Не требуе ...
  • [France] Красный шар / Le ballon rouge (Альбер Ламорис, короткометражка, фэ ...
  • Большой «Фитиль» (Мери Анджапаридзе, Эдуард Бочаров, Софья Милькина, комеди ...
  • Шофер поневоле (Надежда Кошеверова, комедия, 1958) [DVDRip, Не требуется]
  • Информация
    Посетители, находящиеся в группе Гости, не могут оставлять комментарии к данной публикации.