вход на сайт

Имя пользователя :
Пароль :

Восстановление пароля Регистрация
01-99 (Амаси Мартиросян, короткометражка, комедия, 1959) [DVDRip, Не требуется]
Рейтинг:
(голосов: 1)



[img]{THEME}/images/logopost.png[/img]



01-99

Год выпуска: 1959
Страна: Армения
Производство: Арменфильм
Жанр: короткометражка, комедия

Режиссёр: Амаси Мартиросян
В ролях: Фрунзе Мкртчян, Мурад Костанян, Арман Котикян, А. Торгомян, Лилия Оганесян, Георгий Чепчян, Джемма Сарибекян, Аветик Джрагацпанян, Татул Дилакян, А. Айрапетян, Григорий Амирбекян, Маис Карагезян

Перевод: Не требуется
Субтитры: Отсутствуют

Описание:
Пьянице Гарсевану было поручено привезти вино для тестирования специалисту Погосяну. По дороге Гарсеван напился и упал без чувств на обочине. Его подобрала молодая пара, которые подумали, что он стал жертвой дорожно-транспортного происшествия.


Дополнительно:
MediaInfo ▼Text
Общее
Полное имя :J:Кинокопилка.РуРАЗДАЧАХозяин и слуга 01-99 Шелковица ТЖВЖИК1-991-99_DVDRip.avi
Формат :AVI
Размер :350 MiB
Продолжительность :00:20:34.040
Общий поток :2 377 Kbps
Программа кодирования :VirtualDubModRus 1.5.10.2 (build 2542/release)
Библиотека кодирования :VirtualDubMod build 2542/release

Видео
Идентификатор :0
Формат :MPEG-4 Visual
Параметр BVOP формата :1
Параметр Qpel формата :No
Параметр GMC формата :0
Параметр Matrix формата :Default (H.263)
Идентификатор кодека :DX50
Продолжительность :20mn 34s 40ms
Битрейт :2 175 Kbps
Ширина :704 pixels
Высота :528 pixels
Соотношение сторон :1.333
Частота кадров :25.000 fps
Глубина цвета :8 bits
Подвыборка цветности :4:2:0
Цветовое пространство :YUV
Тип развертки :Progressive
Бит/(Пиксели*Кадры) :0.234
Размер потока :320 MiB (92%)
Библиотека кодирования :DivX503b2676p

Аудио #1
Идентификатор :1
Формат :AC-3
Формат/Информация :Audio Coding 3
Идентификатор кодека :2000
Продолжительность :00:20:34.016
Вид битрейта :Constant
Битрейт :192 Kbps
Канал(ы) :2 channels
Расположение каналов :Front: L R
Частота :48.0 KHz
Битовая глубина :16 bits
Метод сжатия :Lossy
Размер потока :28.2 MiB
0d4393c8ffd1a747e246a7624cb5eb09ee3bf9a201-99 (Амаси Мартиросян, короткометражка, комедия, 1959) [DVDRip, Не требуется] 01-99 (Амаси Мартиросян, короткометражка, комедия, 1959) [DVDRip, Не требуется] " />

Аплоадер: Админ, дата: 31-05-2012, 01:04, торрент скачан: 359 раз

Понравилась раздача? Посмотрите эти:
  • На подмостках сцены (Константин Юдин, драма, комедия, 1956) [DVDRip, Не тре ...
  • О чем шумит река (Григорий Мелик-Авакян, драма, 1959) [DVDRip, Не требуется ...
  • Дама с собачкой (Иосиф Хейфиц, драма, мелодрама, 1959) [DVDRip, Не требуетс ...
  • Где это видано, где это слыхано (Валентин Горлов, короткометражка, комедия, ...
  • Сапоги (Владимир Немоляев, короткометражка, драма, комедия, 1957) [DVDRip, ...
  • Драма (Герман Ливанов, короткометражка, комедия, 1960) [DVDRip, Не требуетс ...
  • Опекун (Эдгар Ходжикян, Альберт С. Мкртчян, комедия, 1970) [DVDRip, Не треб ...
  • Печёнка (Арман Манарян, короткометражка, комедия, 1962) [DVDRip, Не требует ...
  • Шелковица / Молодость. Выпуск 2 (Геннадий Мелконян, Андрей Ермаш, Автандил ...
  • Пес Барбос и необычный кросс / Самогонщики / «Сто грамм» для храбрости (Лео ...
  • Майская ночь, или Утопленница (Александр Роу, фэнтези, комедия, 1952) [DVDR ...
  • Старомодная комедия (Эра Савельева, Татьяна Березанцева, мелодрама, 1978) [ ...
  • Похождения Насреддина (Наби Ганиев, комедия, 1946) [DVDRip, Не требуется]
  • Снежная сказка (Алексей Сахаров, Эльдар Шенгелая, фэнтези, 1959) [DVDRip, Н ...
  • Путешествие на Луну / Le Voyage dans la Lune (Жорж Мельес, короткометражка, ...
  • Хозяин и слуга (Дмитрий Кесаянц, короткометражка, комедия, 1963) [DVDRip, Н ...
  • [France] Красный шар / Le ballon rouge (Альбер Ламорис, короткометражка, фэ ...
  • Драгоценный подарок (Александр Роу, семейный, 1956) [DVDRip, Не требуется]
  • Шофер поневоле (Надежда Кошеверова, комедия, 1958) [DVDRip, Не требуется]
  • Зеленый фургон (Генрих Габай, боевик, приключения, 1959) [DVDRip, Не требуе ...
  • Информация
    Посетители, находящиеся в группе Гости, не могут оставлять комментарии к данной публикации.