вход на сайт

Имя пользователя :
Пароль :

Восстановление пароля Регистрация
Увольнение на берег (Феликс Миронер, Рoмaнтичecкaя кoмeдия, 1962) [DVDRip, не требуется]
Рейтинг:
(голосов: 1)



[img]{THEME}/images/logopost.png[/img]



Увольнение на берег

Год выпуска: 1962
Страна: Россия
Производство: Мосфильм
Жанр: Рoмaнтичecкaя кoмeдия

Режиссёр: Феликс Миронер
В ролях: Ариадна Шенгелая, Лев Прыгунов, Василий Макаров, Светлана Коновалова, Борис Дибров, Владимир Высоцкий, Владимир Трещалов, Геннадий Юхтин, Юлия Цоглин, Наталья Кустинская, Станислав Хитров, Валентина Савельева

Перевод: не требуется
Субтитры: Отсутствуют

Описание:
Всего один день провел в южном портовом городе матрос Николай Валежников. Выполняя поручение друга, он встретился со многими людьми и познакомился с девушкой, которая будет ждать его возвращения…


Дополнительно:
MediaInfo ▼Text
Общее
Полное имя :J:Кинокопилка.РуРАЗДАЧАУвольнение на берегYvolnenie.na.bereg.1962.XviD.TVRip.avi
Формат :AVI
Размер :833 MiB
Продолжительность :01:19:35.856
Общий поток :1 462 Kbps
Библиотека кодирования :VirtualDub build 15654/release

Видео
Идентификатор :0
Формат :MPEG-4 Visual
Профиль формата :[email protected]
Параметр BVOP формата :2
Параметр Qpel формата :No
Параметр GMC формата :0
Параметр Matrix формата :Default (H.263)
Идентификатор кодека :XVID
Продолжительность :1h 19mn 35s 840ms
Битрейт :1 389 Kbps
Ширина :640 pixels
Высота :480 pixels
Соотношение сторон :1.333
Частота кадров :25.000 fps
Глубина цвета :8 bits
Подвыборка цветности :4:2:0
Цветовое пространство :YUV
Тип развертки :Progressive
Бит/(Пиксели*Кадры) :0.181
Размер потока :791 MiB (95%)
Библиотека кодирования :XviD0024

Аудио #1
Идентификатор :1
Формат :MPEG Audio
Идентификатор кодека :55
Продолжительность :01:19:35.856
Вид битрейта :Constant
Битрейт :64.0 Kbps
Канал(ы) :1 channel
Частота :48.0 KHz
Метод сжатия :Lossy
Размер потока :36.4 MiB (4%)Тех. данные:
Качество:DVDRip
Продолжительность:01:19:36 час

Формат: AVI
Видео кодек: XviD
Аудио кодек: MPA1L3
Видео: 640 x 480 (4:3), 25.000 fps, 1 389 Kbps, 0.181 bit/pixel
Аудио : 48.0 KHz, , 1 channel (),
12c88e77a1b165dd05ee1d6964c6f69b54adaa13Увольнение на берег (Феликс Миронер, Рoмaнтичecкaя кoмeдия, 1962) [DVDRip, не требуется] Увольнение на берег (Феликс Миронер, Рoмaнтичecкaя кoмeдия, 1962) [DVDRip, не требуется] " />

Аплоадер: Админ, дата: 26-04-2012, 19:55, торрент скачан: 359 раз

Понравилась раздача? Посмотрите эти:
  • Воздыхатель / Le soupirant (Пьер Этекс, комедия, 1962) [DVDRip, Профессиона ...
  • Дикая собака Динго (Юлий Карасик, драма, 1962) [DVDRip, Не требуется]
  • Ход конем (Татьяна Лукашевич, комедия, 1962) [DVDRip, Не требуется]
  • Совсем пропащий (Георгий Данелия, приключения, 1973) [DVDRip, Не требуется] ...
  • Полонез Огинского (Лев Голуб, драма, военный, 1971) [DVDRip, Не требуется]
  • Две жизни (2 части из 2) (Леонид Луков, драма, мелодрама, 1962) [DVDRip, Не ...
  • Иваново детство (Андрей Тарковский, драма, военный, 1962) [DVDRip, Не требу ...
  • Моя любовь (Владимир Корш-Саблин, мюзикл, мелодрама, комедия, 1940) [DVDRip ...
  • Капитанская дочка (Владимир Каплуновский, драма, 1958) [DVDRip, Не требуетс ...
  • [EN] Процесс / The Trial (Орсон Уэллс, фэнтези, триллер, драма, криминал, д ...
  • Печёнка (Арман Манарян, короткометражка, комедия, 1962) [DVDRip, Не требует ...
  • Процесс Жанны Д Арк / Proces de Jeanne dArc (Робер Брессон, драма, военный, ...
  • Черная чайка (Григорий Колтунов, приключения, 1962) [DVDRip, Не требуется]
  • Порожний рейс (Владимир Венгеров, драма, 1962) [DVDRip, Не требуется]
  • Семь нянек (Ролан Быков, комедия, 1962) [DVDRip, Не требуется]
  • Я, бабушка, Илико и Илларион (Тенгиз Абуладзе, мелодрама, комедия, 1962) [D ...
  • Деловые люди (полная реставрация) (Леонид Гайдай, комедия, драма, 1962) [DV ...
  • Увольнение на берег (Феликс Миронер, Рoмaнтичecкaя кoмeдия, 1962) [DVDRip, ...
  • Ад для героев / Hell Is for Heroes (Дон Сигел, боевик, драма, военный, 1962 ...
  • Мы поедем в Дювиль / Nous irons a Deauville (Френсис Риго, комедия, 1962) [ ...
  • Харакири / Seppuku (Масаки Кобаяси, драма, 1962) [DVDRip, Профессиональный ...
  • Взрослые дети (Виллен Азаров, драма, комедия, 1962) [DVDRip, Не требуется] ...
  • Чудак-человек (Владимир Кочетов, комедия, 1962) [DVDRip, Не требуется]
  • Как рождаются тосты (Всеволод Массино, Оскар Герц, Андрей Тутышкин, коротко ...
  • Карьера Димы Горина (Фрунзе Довлатян, Лев Мирский, комедия, 1962) [DVDRip, ...
  • Информация
    Посетители, находящиеся в группе Гости, не могут оставлять комментарии к данной публикации.