вход на сайт

Имя пользователя :
Пароль :

Восстановление пароля Регистрация
Застрял в тебе / Stuck On You (Бобби Фаррелли, Питер Фаррелли, комедия, 2003) [DVDRip, Дубляж]
Рейтинг:
(голосов: 1)



[img]{THEME}/images/logopost.png[/img]



•Застрял в тебе / Stuck On You •
♥ Год выпуска: 2003
♥ Страна: США
♥ Производство: 20th Century Fox Film Corporation, Conundrum Entertainment
♥ Жанр: комедия

♥ Режиссёр: Бобби Фаррелли, Питер Фаррелли
♥ В ролях: Мэтт Дэймон, Грег Киннер, Ева Мендес, Вэнь Ян Ших, Пэт Кроуфорд Браун, Рэй «Рокет» Валльер, Томми Сонгин, Теренс Берни Хайнс, Шер, Джеки Флинн, Гриффин Данн, Бриджет Тобин, Дэнни Мерфи, Уилл Кугэн, Скайлер Стоун, Лесли Манро, Шон Гилди, Рона Митра

♥ Перевод: Дубляж
♥ Субтитры: Отсутствуют

♥ Описание: Боб и Уолт Тенор — не просто братья. Они — сиамские близнецы, которым везет во всем: от бонусных гамбургеров до чудесных трюков на льду. Они — сросшиеся, а потому всегда неразлучны и никогда не бросят друг друга в беде.

Все идет своим чередом, пока Уолт не решает, что пора бы осуществиться его давней мечте — стать звездой Голливуда. Он убеждает своего брата рискнуть вместе с ним, и «странная парочка» отправляется в Калифорнию пытать счастья


MediaInfo ▼
TextGeneral
Complete name : C:astryal v tebe.700mb.2003.avi
Format : AVI
Format/Info : Audio Video Interleave
File size : 700 MiB
Duration : 1h 53mn
Overall bit rate : 861 Kbps
Writing application : VirtualDubMod 1.5.4.1 (build 2178/release)
Writing library : VirtualDubMod build 2178/release
Video #0
ID : 0
Format : MPEG-4 Visual
Format profile : Advanced [email protected]
Format settings, BVOP : 1
Format settings, QPel : No
Format settings, GMC : No warppoints
Format settings, Matrix : Custom
Codec ID : XVID
Codec ID/Hint : XviD
Duration : 1h 53mn
Bit rate : 725 Kbps
Width : 688 pixels
Height : 288 pixels
Display aspect ratio : 2.40:1
Frame rate : 25.000 fps
Color space : YUV
Chroma subsampling : 4:2:0
Bit depth : 8 bits
Scan type : Progressive
Compression mode : Lossy
Bits/(Pixel*Frame) : 0.146
Stream size : 590 MiB (84%)
Writing library : XviD 1.2.1 (UTC 2008-12-04)
Audio #1
ID : 1
Format : MPEG Audio
Format version : Version 1
Format profile : Layer 3
Mode : Joint stereo
Mode extension : MS Stereo
Codec ID : 55
Codec ID/Hint : MP3
Duration : 1h 53mn
Bit rate mode : Constant
Bit rate : 128 Kbps
Channel(s) : 2 channels
Sampling rate : 48.0 KHz
Compression mode : Lossy
Stream size : 104 MiB (15%)
Alignment : Aligned on interleaves
Interleave, duration : 80 ms (2.00 video frames)
Interleave, preload duration : 504 ms
♥ Качество: DVDRip
♥ Продолжительность: 01:53:44

♥ Формат: AVI
♥ Видео кодек: XviD
♥ Аудио кодек: MP3
♥ Видео: 688x288 (2.40:1), 25 fps, XviD ~725 kbps avg, 0.146 bit/pixel
♥ Аудио1: 48 kHz, MPEG Layer 3, 2 ch, ~128.00 kbps avg| Дубляж


♥ Дата премьеры (мир): 10 декабря 2003
♥ Дата премьеры (РФ): 8 января 2004, «Гемини Киномир»


Релиз Группы "Virtus"

Стол заказов / Вступление в РГ / Благодарности, критика и другое



756d02a1216f9b6a89018add9af443cdb975dd3dЗастрял в тебе / Stuck On You (Бобби Фаррелли, Питер Фаррелли, комедия, 2003) [DVDRip, Дубляж] Застрял в тебе / Stuck On You (Бобби Фаррелли, Питер Фаррелли, комедия, 2003) [DVDRip, Дубляж] " />

Аплоадер: Админ, дата: 9-01-2013, 19:02, торрент скачан: 359 раз

Понравилась раздача? Посмотрите эти:
  • Муви 43 / Movie 43 (Стивен Брилл, Питер Фаррелли, Элизабет БэнксСтивен, ком ...
  • Муви 43 / Movie 43 (Стивен Брилл, Питер Фаррелли, Элизабет БэнксСтивен, ком ...
  • Муви 43 / Movie 43 (Стивен Брилл, Питер Фаррелли, Элизабет БэнксСтивен, ком ...
  • Скуби-Ду! Маска Синего Сокола / Scooby-Doo! Mask Of The Blue Falcon (Оливье ...
  • Любовь зла / Shallow Hal (Бобби Фаррелли, Питер Фаррелли, фэнтези, драма, ...
  • Молодежный чемпионат мира 2012 (U-20). Четвертьфинал: Россия - Чехия [02.01 ...
  • Чемпионат Испании 2011-12 / 36-й тур / Реал Мадрид - Севилья / НТВ+ [Футбол ...
  • Чемпионат Европы 2012 / Группа C / 1-й тур / Ирландия — Хорватия / ТРК Футб ...
  • Чемпионат Европы 2012 / Группа D / 1-й тур / Украина - Швеция / Спорт 1 [11 ...
  • Олимпиада 2012 / Мужчины / Группа D / 1-й тур / Испания — Япония / НТВ+ [Фу ...
  • Олимпиада 2012 / Футбол / Мужчины / Группа A / 3-й тур / Великобритания - У ...
  • Холостячки / Bachelorette (Лесли Хэдланд, комедия, 2012) [HDRip, Дубляж]
  • Застрял в тебе / Stuck on You (Бобби Фаррелли, Питер Фаррелли / Bobby Farre ...
  • Девушка моих кошмаров / The Heartbreak Kid (Бобби Фаррелли, Питер Фаррелли, ...
  • Безбрачная неделя / Hall Pass (Бобби Фарелли, Питер Фаррелли, комедия, 2011 ...
  • Неделя в NBA с В.Гомельским / НТВ+ [28.06.2011, SD, XviD, RU, SAT]
  • Я, снова я и Ирэн / Me, Myself & Irene (Бобби Фаррелли, Питер Фаррелли, ком ...
  • Застрял в тебе / Stuck on You (Бобби Фаррелли, Питер Фаррелли, комедия, 200 ...
  • Чемпионат Европы 2012 / Группа B / 1-й тур / Германия - Португалия / Спорт ...
  • NBA Finals 2012 / Sportscenter / В преддверии 3-ей игры / Viasat Sport [Бас ...
  • Товарищеский матч 2012 / АмаЗулу (ЮАР) - Манчестер Юнайтед (Англия) / MU TV ...
  • Олимпиада 2012 / Женщины, Мужчины / Плавание / Квалификация / НТВ+ [30.07.2 ...
  • Три балбеса / The Three Stooges (Бобби Фаррелли, Питер Фаррелли, Комедия, 2 ...
  • Три балбеса / The Three Stooges (Бобби Фаррелли, Питер Фаррелли, Комедия, 2 ...
  • Петля времени / Looper (Райан Джонсон, фантастика, боевик, триллер, 2012) [ ...
  • Информация
    Посетители, находящиеся в группе Гости, не могут оставлять комментарии к данной публикации.