вход на сайт

Имя пользователя :
Пароль :

Восстановление пароля Регистрация
Отдам котят в хорошие руки (Александр Баршак, комедия, 2012)[SATRip, не требуется]
Рейтинг:
(голосов: 1)



[img]{THEME}/images/logopost.png[/img]



Отдам котят в хорошие руки

Информация о фильме
Год выпуска: 2012
Страна: Россия
Производство: Фокус Фильм
Жанр: комедия

Режиссёр: Александр Баршак
В ролях: Карина Андоленко, Ирина Медведева, Денис Бургазлиев, Николай Иванов, Михаил Горевой, Тимофей Трибунцев, Надежда Иванова

Перевод: не требуется
Субтитры: нет

Описание
***
В канун Нового Года жизнь подбрасывает Кате целый ворох проблем: уходит любовник, на работе грядут серьезные перемены, а под дверью оказывается коробка с котятами. Пытаясь пристроить котят в «хорошие руки», она попадает в целый водоворот событий, что в конечном итоге позволяет ей переосмыслить многое в своей жизни.

***
Тех.Данные

Качество: SATRip
Продолжительность: ~01:34:42 часа

Формат: Audio Video Interleave
Видео кодек: XviD MPEG-4 Visual
Аудио кодек: MPEG Layer 3
Видео: 704x368 (1.91:1), 25 fps, XviD build 64 ~880 kbps avg, 0.13 bit/pixel
Аудио: 48.00 kHz, MPEG Layer 3, 2 ch, ~128.00 kbps avg

MediaInfo ▼TextОбщее
Полное имя : D:DownloadsОтдам котят в хорошие руки.2012.SATRip.avi
Формат : AVI
Формат/Информация : Audio Video Interleave
Размер файла : 692 Мбайт
Продолжительность : 1 ч. 34 м.
Общий поток : 1021 Кбит/сек
Программа кодирования : XviD4PSP 6.0 / 53.6.0

Видео
Идентификатор : 0
Формат : MPEG-4 Visual
Профиль формата : [email protected]
Параметр BVOP формата : Нет
Параметр QPel формата : Нет
Параметр GMC формата : Без точки перехода
Параметр матрицы формата : Default (H.263)
Идентификатор кодека : XVID
Идентификатор кодека/Подсказка : XviD
Продолжительность : 1 ч. 34 м.
Битрейт : 880 Кбит/сек
Ширина : 704 пикселя
Высота : 368 пикселей
Соотношение сторон : 1,913
Частота кадров : 25,000 кадров/сек
Цветовое пространство : YUV
Субдискретизация насыщенности : 4:2:0
Битовая глубина : 8 бит
Тип развёртки : Прогрессивная
Метод сжатия : С потерями
Бит/(Пиксели*Кадры) : 0.136
Размер потока : 596 Мбайт (86%)
Библиотека кодирования : XviD 64

Аудио
Идентификатор : 1
Формат : MPEG Audio
Версия формата : Version 1
Профиль формата : Layer 3
Режим : Joint stereo
Расширение режима : MS Stereo
Идентификатор кодека : 55
Идентификатор кодека/Подсказка : MP3
Продолжительность : 1 ч. 34 м.
Вид битрейта : Постоянный
Битрейт : 128 Кбит/сек
Каналы : 2 канала
Частота : 48,0 КГц
Метод сжатия : С потерями
Размер потока : 86,7 Мбайт (13%)
Выравнивание : Соединение по промежуткам
Продолжительность промежутка : 24 мс. (0,60 видеокадр)
Библиотека кодирования : LAME3.98.2




bf3e8eec19329edcafa9bda0676a0920d492f872Отдам котят в хорошие руки (Александр Баршак, комедия, 2012)[SATRip, не требуется] Отдам котят в хорошие руки (Александр Баршак, комедия, 2012)[SATRip, не требуется] " />

Аплоадер: Админ, дата: 6-01-2013, 12:28, торрент скачан: 359 раз

Понравилась раздача? Посмотрите эти:
  • Чемпионат Италии 2012-13 / 26-й тур / Интер - Милан / НТВ+ [Футбол, 24.02.2 ...
  • Злые птицы: Хэллоуин / Angry Birds: HamOWeen (Джей Ройвайнен, Мультфильм, к ...
  • Вечерний Ургант // Сезон 2. Выпуск 56 (ТВ-шоу, 11.12.2012) [SATRip, Не треб ...
  • Бог любви / God of Love (Люк Мэзени, Короткометражка, фэнтези, комедия, мел ...
  • Любовь по расписанию / Поезд (Сергей Мезенцев, мелодрама, 2012) [HDTVRip, Н ...
  • Вечерний Ургант // Сезон 2. Выпуск 62 (ТВ-шоу, 19.12.2012) [SATRip, Не треб ...
  • Вечерний Ургант // Сезон 2. Выпуск 63 (ТВ-шоу, 20.12.2012) [SATRip, Не треб ...
  • Кейси Джонс / Casey Jones (Иларион Бэнкс, Короткометражка, фэнтези, боевик, ...
  • Заместитель / Il supplente (Андреа Жублин, Короткометражка, комедия, 2007) ...
  • Вечерний Ургант // Сезон 2. Выпуск 64 (ТВ-шоу, 21.12.2012) [SATRip, Не треб ...
  • Вечерний Ургант // Сезон 2. Выпуск 66 (ТВ-шоу, 25.12.2012) [SATRip, Не треб ...
  • Вечерний Ургант // Сезон 2. Выпуск 68 (ТВ-шоу, 27.12.2012) [SATRip, Не треб ...
  • Дорога на... / Road to (Таисия Игуменцева, Комедия, короткометражный, 2011) ...
  • Покорить высоту / Take It to the Limit (Сэм Кит / Sam Kieth, семейный, 2000 ...
  • Светлячок. Воссоединение Коричневых плащей к 10 годовщине / Firefly 10th An ...
  • Отдам котят в хорошие руки (Александр Баршак, комедия, 2012)[SATRip, не тре ...
  • В лесу / The Forest (Шан Серафин, ужасы, триллер , 2011) [SATRip, Профессио ...
  • Развод по-русски. Выпуск №78. Трагедии звездных семей (Документальный,телеп ...
  • Чемпионат Италии 2012-13 / 9-й тур / Рома — Удинезе / НТВ+ [Футбол, 28.10.2 ...
  • Обратный билет (Александр Кананович, Мелодрама, 2012) [SATRip, Не требуется ...
  • Информация
    Посетители, находящиеся в группе Гости, не могут оставлять комментарии к данной публикации.