вход на сайт

Имя пользователя :
Пароль :

Восстановление пароля Регистрация
Рок-н-ролл для принцесс (2 части из 2) (Радомир Василевский, Комедия, семейный, 1990) [DVDRip, Не требуется]
Рейтинг:
(голосов: 1)



[img]{THEME}/images/logopost.png[/img]



Рок-н-ролл для принцесс (2 части из 2)

Год выпуска: 1990
Страна: Россия
Производство: Одесская киностудия, Примодесса фильм
Жанр: Комедия, семейный

Режиссёр: Радомир Василевский
В ролях: Валерий Ивченко, Светлана Немоляева, Виктор Павлов, Александр Пашутин, Игорь Письменный, Валентина Касьянова, Андрей Анкудинов, Надежда Самсонова, Софья Горшкова, Михаил Дементьев

Перевод: Не требуется
Субтитры: Отсутствуют

Описание:
Король и королева мармеладного государства задумали женить принца, для этого затеяли конкурс принцесс, превратившийся в забавный, в стиле рок-н-ролл, полный шуток и юмора праздник, который окончился победой любви двух чистых молодых сердец.


Дополнительно:
MediaInfo ▼Text
"1 часть" ▼Общее
Полное имя :D:Рок-н-ролл для принцессРок-н-ролл для принцесс1.avi
Формат :AVI
Размер :911 MiB
Продолжительность :01:07:16.608
Общий поток :1 893 Kbps
Библиотека кодирования :VirtualDub build 27021/release

Видео
Идентификатор :0
Формат :MPEG-4 Visual
Параметр BVOP формата :2
Параметр Qpel формата :No
Параметр GMC формата :0
Параметр Matrix формата :Default (MPEG)
Идентификатор кодека :DX50
Продолжительность :1h 7mn 16s 600ms
Битрейт :1 499 Kbps
Ширина :672 pixels
Высота :544 pixels
Соотношение сторон :1.235
Частота кадров :25.000 fps
Глубина цвета :8 bits
Подвыборка цветности :4:2:0
Цветовое пространство :YUV
Тип развертки :Progressive
Бит/(Пиксели*Кадры) :0.164
Размер потока :722 MiB (79%)
Библиотека кодирования :DivX503b1307m

Аудио #1
Идентификатор :1
Формат :AC-3
Формат/Информация :Audio Coding 3
Идентификатор кодека :2000
Продолжительность :01:07:16.608
Вид битрейта :Constant
Битрейт :384 Kbps
Канал(ы) :6 channels
Расположение каналов :Front: L C R, Side: L R, LFE
Частота :48.0 KHz
Битовая глубина :16 bits
Метод сжатия :Lossy
Размер потока :185 MiB (20%)

"2 часть" ▼Общее
Полное имя &
5ac7c517dabf5e1faa796b4e143d124f998f7a16Рок-н-ролл для принцесс (2 части из 2) (Радомир Василевский, Комедия, семейный, 1990) [DVDRip, Не требуется] Рок-н-ролл для принцесс (2 части из 2) (Радомир Василевский, Комедия, семейный, 1990) [DVDRip, Не требуется] " />

Аплоадер: Админ, дата: 4-01-2013, 17:57, торрент скачан: 359 раз

Понравилась раздача? Посмотрите эти:
  • Будни и праздники Серафимы Глюкиной (2 части из 2) (Ростислав Горяев, драма ...
  • Биндюжник и король (2 части из 2) (Владимир Алеников, мюзикл, драма, комеди ...
  • Мир дому твоему (2 части из 2) (Константин Райкин, Аркадий Райкин, Марк Орл ...
  • Макар-следопыт (3 части из 3) (Николай Ковальский, семейный, 1984) [DVDRip, ...
  • Люди и манекены (4 части из 4) (Виктор Храмов, Аркадий Райкин, комедия, 197 ...
  • Дон Сезар де Базан (2 части из 2) (Ян Фрид, мюзикл, комедия, 1989) [DVDRip, ...
  • Покровские ворота (2 части из 2) (Михаил Козаков, мюзикл, драма, мелодрама, ...
  • Анискин и Фантомас (2 части из 2) (Михаил Жаров, Владимир Рапопорт, комедия ...
  • Комедия ошибок (2 части из 2) (Вадим Гаузнер, комедия, 1978) [DVDRip, Не тр ...
  • Карнавал (2 части из 2) (Татьяна Лиознова, мюзикл, комедия, 1981) [DVDRip, ...
  • Царская охота (2 части из 2) (Виталий Мельников, драма, история, 1990) [DVD ...
  • Взятки гладки (2 части из 2) (Игорь Масленников, Комедия, 2008) [DVDRip, Не ...
  • Степь (2 части из 2) (Сергей Бондарчук, драма, история, 1977) [DVDRip, Не т ...
  • Трест, который лопнул (3 части из 3) (Александр Павловский, мюзикл, комедия ...
  • У меня есть лев (2 части из 2) (Константин Бромберг, драма, комедия, приклю ...
  • Ханума (2 части из 2) (Георгий Товстоногов, мюзикл, комедия, 1978) [DVDRip, ...
  • Приморский бульвар (2 части из 2) (Александр Полынников, мюзикл, комедия, 1 ...
  • 4:0 в пользу Танечки (Радомир Василевский, Комедия, Семейный, 1982) [DVDRip ...
  • Почти смешная история (2 части из 2) (Петр Фоменко, мелодрама, комедия, 197 ...
  • Подпольный обком действует (4 части из 4) (Анатолий Буковский, военный, 197 ...
  • В лесах под Ковелем (3 части из 3) (Юрий Тупицкий, военный, история, 1984) ...
  • Гений (2 части из 2) (Виктор Сергеев, Комедия, криминал, 1991) [DVDRip, Не ...
  • Дядюшкин сон (2 части из2) (Александр Орлов, драма, комедия, 1981) [DVDRip, ...
  • Зверобой (2 части из 2) (Андрей Ростоцкий, приключения, 1990) [DVDRip, Не т ...
  • Каникулы Петрова и Васечкина, обыкновенные и невероятные (2 части из 2) (Вл ...
  • Информация
    Посетители, находящиеся в группе Гости, не могут оставлять комментарии к данной публикации.