вход на сайт

Имя пользователя :
Пароль :

Восстановление пароля Регистрация
Папаша / Starbuck (Кен Скотт, Драма, комедия, 2011) [BDRip, Профессиональный (многоголосый закадровый)]
Рейтинг:
(голосов: 1)



[img]{THEME}/images/logopost.png[/img]



Папаша / Starbuck

Год выпуска: 2011
Страна: Канада
Производство: Caramel Film
Жанр: Драма, комедия

Режиссёр: Кен Скотт
В ролях: Патрик Уард (David Wozniak / Starbuck), Джули Лебретон (Valérie), Антуан Бертран (Avocat), Доминик Фили (Frère sombre), Марк Беланже (Frère sympathique), Игорь Овадис (Père de David), Дэвид Майкл (Antoine), Патрик Мартин (Étienne), Давид Жигер (Porte parole), Сара-Джинн Лабросс (Julie), Себастьен Бюлак (Homme de main), Патрик Ко (Voleur de stationnement)

Перевод: Профессиональный (многоголосый закадровый) [Лицензия]
Субтитры: Oтсутствуют

Описание: Фильм рассказывает о Дэвиде Возняке, бездельнике среднего возраста, которому сообщили, что сперма, которую он когда-то сдавал за деньги, произвела на свет ровно 533 ребенка. И большая часть из них подают в суд на клинику, чтобы узнать, кто их отец?!





Качество: BDRip
Продолжительность: 01:49:00

Формат: AVI
Видео кодек: XviD
Аудио кодек: MP3
Видео: 640x272 (2.35:1), 23.976 fps, XviD build 65 ~818 kbps avg, 0.20 bit/pixel
Аудио: 48 kHz, MPEG Layer 3, 2 ch, ~128.00 kbps avg

"MediaInfo:" ▼General
Complete name : Papasha.2011.BDRip.XviD.MVO.745MB.avi
Format : AVI
Format/Info : Audio Video Interleave
File size : 745 MiB
Duration : 1h 49mn
Overall bit rate : 956 Kbps
Writing application : VirtualDubMod 1.5.10.3 | www.virtualdub-fr.org || (build 2550/release)
Writing library : VirtualDubMod build 2550/release

Video
ID : 0
Format : MPEG-4 Visual
Format profile : Advanced [email protected]
Format settings, BVOP : 2
Format settings, QPel : No
Format settings, GMC : No warppoints
Format settings, Matrix : Custom
Codec ID : XVID
Codec ID/Hint : XviD
Duration : 1h 49mn
Bit rate : 819 Kbps
Width : 640 pixels
Height : 272 pixels
Display aspect ratio : 2.35:1
Frame rate : 23.976 fps
Color space : YUV
Chroma subsampling : 4:2:0
Bit depth : 8 bits
Scan type : Progressive
Compression mode : Lossy
Bits/(Pixel*Frame) : 0.196
Stream size : 638 MiB (86%)
Writing library : XviD 65

Audio
ID : 1
Format : MPEG Audio
Format version : Version 1
Format profile : Layer 3
Mode : Joint stereo
Codec ID : 55
Codec ID/Hint : MP3
Duration : 1h 49mn
Bit rate mode : Constant
Bit rate : 128 Kbps
Channel(s) : 2 channels
Sampling rate : 48.0 KHz
Compression mode : Lossy
Stream size : 99.8 MiB (13%)
Alignment : Aligned on interleaves
Interleave, duration : 42 ms (1.00 video frame)
Interleave, preload duration : 504 ms
Writing library : LAME3.99r
Encoding settings : -m j -V 4 -q 0 -lowpass 17 -b 128



Стол заказов POWER | Отзывы | Вступление в POWER


d52dee5681d76db3ac39f34e7e26f788ef298530Папаша / Starbuck (Кен Скотт, Драма, комедия, 2011) [BDRip, Профессиональный (многоголосый закадровый)] Папаша / Starbuck (Кен Скотт, Драма, комедия, 2011) [BDRip, Профессиональный (многоголосый закадровый)] " />

Аплоадер: Админ, дата: 29-12-2012, 15:48, торрент скачан: 359 раз

Понравилась раздача? Посмотрите эти:
  • Погнали! / Getaway (Кортни Соломон, Боевик,Криминал, 2013) [HDRip, Професси ...
  • Мэрайа Мунди и шкатулка Мидаса / The Adventurer: The Curse of the Midas Box ...
  • Папаша / Starbuck (Кен Скотт, Драма, комедия, 2011) [BDRip-AVC, Профессиона ...
  • Решала (Роман Асхаев, Драма,Криминал, 2012) [WEB-DLRip, Не требуется]
  • МЫ. Верим в любовь / W.E. (Мадонна, Драма, мелодрама, история, 2011) [BDRip ...
  • Магазин самоубийств / Le magasin des suicides (Патрис Леконт, Мультфильм, м ...
  • Лучший стрелок / Top Gun (Тони Скотт, боевик, драма, мелодрама, 1986) [BDRi ...
  • Акулы пера / Soloalbum (Грегор Шнитцлер, мелодрама, комедия, 2003) [BDRip, ...
  • Джефф, живущий дома / Jeff, Who Lives at Home (Джей Дюпласс, Марк Дюпласс, ...
  • Захват / Carjacked (Джон Бонито, триллер, 2011)[BDRip, Профессиональный (мн ...
  • Мой парень – псих / Silver Linings Playbook (Дэвид О. Расселл, Драма, мелод ...
  • Чемпионат Европы 2012 / Группа D / 1-й тур / Украина - Швеция / Спорт 1 [11 ...
  • Прощай, моя королева / Les adieux à la reine (Бенуа Жако, драма, история, 2 ...
  • Неприкасаемые / Intouchables (Оливье Накаш, Эрик Толедано, Драма, 2011) [BD ...
  • Мистер Ганджубас / Mr. Nice (Бернард Роуз, Драма, комедия, 2010)[HDRip, Про ...
  • Романтики / The Romantics (Галт Нидерхоффер, Драма, мелодрама, комедия, 201 ...
  • Чемпионат Европы 2012 / Группа B / 1-й тур / Германия - Португалия / Спорт ...
  • Замёрзший мир / 2012: Ice Age (Трэвис Форт, фантастика, боевик, 2011) [HDRi ...
  • Мгновение любви / Here (Браден Кинг, Драма, мелодрама, приключения, 2011) [ ...
  • Папаша / Starbuck (Кен Скотт, комедия, 2011) [HDRip, Профессиональный (мног ...
  • Папаша / Starbuck (Кен Скотт, комедия, 2011) [HDRip, Профессиональный (мног ...
  • Музыка нас связала / You Instead (Дэвид МакКензи, Драма, комедия, музыка, 2 ...
  • Девушки в опасности / Damsels in Distress (Уит Стиллман, драма, мелодрама, ...
  • Искажение / Skew (Сейв Челенз, ужасы, триллер, 2011) [HDRip, Профессиональн ...
  • Папаша / Starbuck (Кен Скотт, драма, комедия, 2012) [HDRip, Профессиональны ...
  • Информация
    Посетители, находящиеся в группе Гости, не могут оставлять комментарии к данной публикации.