вход на сайт

Имя пользователя :
Пароль :

Восстановление пароля Регистрация
Холостячки / Bachelorette (Лесли Хэдланд, комедия, 2012) [HDRip, Дубляж]
Рейтинг:
(голосов: 1)



[img]{THEME}/images/logopost.png[/img]



•Холостячки / Bachelorette •
♥ Год выпуска: 2012
♥ Страна: США
♥ Производство: BCDF Pictures, Gary Sanchez Productions
♥ Жанр: комедия

♥ Режиссёр: Лесли Хэдланд
♥ В ролях: Кирстен Данст, Айла Фишер, Лиззи Каплан, Джеймс Марсден, Кайл Борнхеймер, Ребел Уилсон, Адам Скотт, Энди Раннеллс, Хэйес МакАртур, Элла Рэй Пек

♥ Перевод: Дубляж
♥ Субтитры: Отсутствуют

♥ Описание: Три симпатичные и острые на язык незамужние подруги приезжают на свадьбу бывшей одноклассницы-толстушки и… случайно портят впечатляющее своими размерами подвенечное платье невесты. А ведь завтра ей идти к алтарю! За одну ночь холостячкам предстоит проделать головокружительное путешествие по стрип-клубам, туалетным комнатам и мужским спальням во имя спасения свадьбы той, которую они терпеть не могут.


MediaInfo ▼
TextGeneral
Complete name : C:Holostjachki.2012.HDRip.700MB.avi
Format : AVI
Format/Info : Audio Video Interleave
File size : 743 MiB
Duration : 1h 27mn
Overall bit rate : 1 192 Kbps
Writing application : VirtualDubMod 1.5.10.3 | www.virtualdub-fr.org || (build 2550/release)
Writing library : VirtualDubMod build 2550/release
Video #0
ID : 0
Format : MPEG-4 Visual
Format profile : Advanced [email protected]
Format settings, BVOP : 1
Format settings, QPel : No
Format settings, GMC : No warppoints
Format settings, Matrix : Custom
Codec ID : XVID
Codec ID/Hint : XviD
Duration : 1h 27mn
Bit rate : 1 055 Kbps
Width : 704 pixels
Height : 288 pixels
Display aspect ratio : 2.40:1
Frame rate : 23.976 fps
Color space : YUV
Chroma subsampling : 4:2:0
Bit depth : 8 bits
Scan type : Progressive
Compression mode : Lossy
Bits/(Pixel*Frame) : 0.217
Stream size : 657 MiB (88%)
Writing library : XviD 64
Audio #1
ID : 1
Format : MPEG Audio
Format version : Version 1
Format profile : Layer 3
Codec ID : 55
Codec ID/Hint : MP3
Duration : 1h 27mn
Bit rate mode : Constant
Bit rate : 128 Kbps
Channel(s) : 2 channels
Sampling rate : 48.0 KHz
Compression mode : Lossy
Stream size : 79.8 MiB (11%)
Alignment : Aligned on interleaves
Interleave, duration : 42 ms (1.00 video frame)
Interleave, preload duration : 504 ms
Writing library : L3.99r
Encoding settings : -m s -V 4 -q 2 -lowpass 17 -b 128

♥ Качество: HDRip
♥ Продолжительность: 01:27:07

♥ Формат: AVI
♥ Видео кодек: XviD
♥ Аудио кодек: MP3
♥ Видео: 704x288 (2.40:1), 23.976 fps, XviD build 64 ~1055 kbps avg, 0.217 bit/pixel
♥ Аудио1: 48 kHz, MPEG Layer 3, 2 ch, ~128.00 kbps avg


♥ Дата премьеры (мир): 23 января 2012
♥ Дата премьеры (РФ): 6 сентября 2012, «Top Film Distribution»


Релиз Группы "Virtus"

Стол заказов / Вступление в РГ / Благодарности, критика и другое


4e2b01e7bc149607351d0c51310869f594172a0a Холостячки / Bachelorette (Лесли Хэдланд, комедия, 2012) [HDRip, Дубляж] Холостячки / Bachelorette (Лесли Хэдланд, комедия, 2012) [HDRip, Дубляж] " />

Аплоадер: Админ, дата: 26-12-2012, 20:33, торрент скачан: 359 раз

Понравилась раздача? Посмотрите эти:
  • Холостячки / Bachelorette (Лесли Хэдланд, комедия, 2012) [HDRip-AVC, Профес ...
  • Холостячки / Bachelorette (Лесли Хэдланд, Комедия, 2012) [BDRip 720p, Профе ...
  • Холостячки / Bachelorette (Лесли Хэдланд, Комедия, 2012) [BDRip 1080p, Проф ...
  • Воображариум / Imaginaerum (Стобе Харью, Фэнтези, приключения, мюзикл, драм ...
  • Холостячки / Bachelorette (Лесли Хэдланд, комедия, мелодрама, 2012) [HDRip- ...
  • Решала (Роман Асхаев, Драма,Криминал, 2012) [WEB-DLRip, Не требуется]
  • Родительский беспредел / Parental Guidance (Энди Фикмен, комедия, семейный, ...
  • В хлам / Smashed (Джеймс Понсольдт, Драма, комедия, 2012) [HDRip, Профессио ...
  • Холостячки / Bachelorette (Лесли Хэдланд, Комедия, мелодрама, 2012) [480x20 ...
  • Магазин самоубийств / Le magasin des suicides (Патрис Леконт, Мультфильм, м ...
  • Скуби-Ду! Маска Синего Сокола / Scooby-Doo! Mask Of The Blue Falcon (Оливье ...
  • Холостячки / Bachelorette (Лесли Хэдланд, комедия, 2012) [BDRip 720p, Дубли ...
  • Холостячки / Bachelorette (Лесли Хэдланд, Комедия, 2012) [DVD5, Дубляж]
  • Чемпионат Европы 2012 / Группа C / 1-й тур / Ирландия — Хорватия / ТРК Футб ...
  • Чемпионат Европы 2012 / Группа D / 1-й тур / Украина - Швеция / Спорт 1 [11 ...
  • Tank Feat. T.I. & Kris Stephens / Compliments [2012, RnB,Hip-Hop, HDRip]
  • Холостячки / Bachelorette (Лесли Хэдланд, комедия, 2012) [HDRip, Дубляж]
  • Чемпионат Европы 2012 / Группа B / 1-й тур / Германия - Португалия / Спорт ...
  • Товарищеский матч 2012 / АмаЗулу (ЮАР) - Манчестер Юнайтед (Англия) / MU TV ...
  • Олимпиада 2012 / Женщины, Мужчины / Плавание / Квалификация / НТВ+ [30.07.2 ...
  • Информация
    Посетители, находящиеся в группе Гости, не могут оставлять комментарии к данной публикации.