вход на сайт

Имя пользователя :
Пароль :

Восстановление пароля Регистрация
Идеальный Голос / Pitch Perfect (Джейсон Мур, Комедия, музыка, 2012) [HDRip, Любительский (одноголосый, закадровый) [zamez]]
Рейтинг:
(голосов: 1)



[img]{THEME}/images/logopost.png[/img]



Идеальный Голос / Pitch Perfect

Год выпуска: 2012
Страна: США
Производство: Brownstone Productions (III), Gold Circle Films
Жанр: Комедия, музыка

Режиссёр: Джейсон Мур
В ролях: Анна Кендрик, Скайлар Эстин, Бен Платт, Бриттани Сноу, Анна Кэмп, Ребел Уилсон, Алексис Кнапп, Эстер Дин, Хана Мэй Ли

Перевод: Любительский (одноголосый, закадровый) (Вячеслав Замез)[zamez]
Субтитры: Отсутствуют


Описание:Картина основывается на книге Мики Рэпкина «Пой идеально: Погоня за славной вокалиста а капелла», в которой рассказывается о студентке, внезапно обнаружившей в себе страсть к пению а капелла, то есть, без музыкального сопровождения.




"Media info" ▼TextОбщее
Полное имя : Pitch.Perfect.2012.L1.HDRip- MysTeRy.avi
Формат : AVI
Формат/Информация : Audio Video Interleave
Размер файла : 1,46 Гбайт
Продолжительность : 1 ч. 52 м.
Общий поток : 1868 Кбит/сек
Программа кодирования : VirtualDubMod 1.5.10.2 (build 2540/release)
Библиотека кодирования : VirtualDubMod build 2540/release

Видео
Идентификатор : 0
Формат : MPEG-4 Visual
Профиль формата : Advanced [email protected]
Параметр BVOP формата : 2
Параметр QPel формата : Нет
Параметр GMC формата : Без точки перехода
Параметр матрицы формата : Default (MPEG)
Идентификатор кодека : XVID
Идентификатор кодека/Подсказка : XviD
Продолжительность : 1 ч. 52 м.
Битрейт : 1411 Кбит/сек
Ширина : 720 пикселей
Высота : 384 пикселя
Соотношение сторон : 1,875
Частота кадров : 23,976 кадра/сек
Цветовое пространство : YUV
Субдискретизация насыщенности : 4:2:0
Битовая глубина : 8 бит
Тип развёртки : Прогрессивная
Метод сжатия : С потерями
Бит/(Пиксели*Кадры) : 0.213
Размер потока : 1,10 Гбайт (76%)
Библиотека кодирования : XviD 1.2.1 (UTC 2008-12-04)

Аудио
Идентификатор : 1
Формат : AC-3
Формат/Информация : Audio Coding 3
Расширение режима : CM (complete main)
Идентификатор кодека : 2000
Продолжительность : 1 ч. 52 м.
Вид битрейта : Постоянный
Битрейт : 448 Кбит/сек
Каналы : 6 каналов
Расположение каналов : Front: L C R, Side: L R, LFE
Частота : 48,0 КГц
Битовая глубина : 16 бит
Метод сжатия : С потерями
Размер потока : 359 Мбайт (24%)
Выравнивание : Разделение по промежуткам
Продолжительность промежутка : 42 мс. (1,00 видеокадр)
Время предзагрузки промежутка : 500 мс.

"Премьеры" ▼Премьера (мир) - 28 сентября 2012
Премьера (РФ) -

"Сборы." ▼ *
Кассовые сборы
В США: $64 129 000
В других странах:
$20 100 000

Общие сборы:
$84 229 000

Затраты
Бюджет:
$17 000 000

Маркетинг:
--

Итого:
$17 000 000


Качество: HDRip
Продолжительность: 01:52:07

Формат: AVI
Видео кодек: XviD
Аудио кодек: AС3
Видео: 720x384 (1.88:1), 23.976 fps, XviD build 50 ~1410 kbps avg, 0.21 bit/pixel
Аудио: 48 kHz, AC3 Dolby Digital, 3/2 (L,C,R,l,r) + LFE ch ~448.00 kbps avg


30b5a601c9a4aa8818f5ff96bd3d0d6f32a1c055Идеальный Голос / Pitch Perfect (Джейсон Мур, Комедия, музыка, 2012) [HDRip, Любительский (одноголосый, закадровый) [zamez]] Идеальный Голос / Pitch Perfect (Джейсон Мур, Комедия, музыка, 2012) [HDRip, Любительский (одноголосый, закадровый) [zamez]] " />

Аплоадер: Админ, дата: 24-12-2012, 21:55, торрент скачан: 359 раз

Понравилась раздача? Посмотрите эти:
  • Прошлое / Le passé (Асгар Фархади, Драма, детектив , 2013) [HDRip, Авторски ...
  • Грязная кампания за честные выборы / The Campaign (Джей Роуч , Комедия,201 ...
  • Идеальный голос / Pitch Perfect (Джейсон Мур, мелодрама, комедия, музыка, 2 ...
  • Идеальный голос / Pitch Perfect (Джейсон Мур, мелодрама, комедия, музыка, 2 ...
  • Идеальный голос / Pitch Perfect (Джейсон Мур, Мелодрама, комедия, музыка, 2 ...
  • Идеальный голос / Pitch Perfect (Джейсон Мур, Мелодрама, комедия, музыка, 2 ...
  • Идеальный голос / Pitch Perfect (Джейсон Мур, Мелодрама, комедия, музыка, 2 ...
  • Идеальный голос / Pitch Perfect (Джейсон Мур, Мелодрама, комедия, музык, 20 ...
  • Идеальный голос / Pitch Perfect (Джейсон Мур, мелодрама, комедия, музыка, 2 ...
  • Идеальный голос / Pitch Perfect (Джейсон Мур, мелодрама, комедия, музыка, 2 ...
  • Идеальный голос / Pitch Perfect (Джейсон Мур, Мелодрама, комедия, музыка, 2 ...
  • Идеальный голос / Pitch Perfect (Джейсон Мур, мелодрама, комедия, музыка, 2 ...
  • Идеальный голос / Pitch Perfect (Джейсон Мур, мелодрама, комедия, музыка, 2 ...
  • Сироп / Syrup (Арам Раппапорт, драма, мелодрама, комедия, 2012) [WEB-DLRip, ...
  • Агент под прикрытием / So Undercover (Том Вон, Боевик, Комедия, 2012) [HDRi ...
  • Идеальный Голос / Pitch Perfect (Джейсон Мур, Комедия, музыка, 2012) [BDRip ...
  • Жил-был тигр / Ek Tha Tiger (Кабир Кхан, боевик, триллер , 2012) [ HDRip, ...
  • Идеальный Голос / Pitch Perfect (Джейсон Мур, Комедия, музыка, 2012) [BDRip ...
  • Бог любви / God of Love (Люк Мэзени, Короткометражка, фэнтези, комедия, мел ...
  • Идеальный Голос / Pitch Perfect (Джейсон Мур, Комедия, музыка, 2012) [HDRip ...
  • Капитан Гром и Святой Грааль / El Capitán Trueno y el Santo Grial (Антонио ...
  • Идеальный голос / Pitch Perfect (Джейсон Мур, Комедия, музыка, 2012) [HDRip ...
  • Ловцы забытых голосов / Hoshi wo Ou Kodomo (2011) [HDRip, любительский (одн ...
  • Глаз шторма / The Eye of the Storm (Фред Скеписи, Драма, 2011) [HDRip, Проф ...
  • Сдохни, Джон Такер / John Tucker Must Die (Бетти Томас, мелодрама, комедия, ...
  • Информация
    Посетители, находящиеся в группе Гости, не могут оставлять комментарии к данной публикации.