вход на сайт

Имя пользователя :
Пароль :

Восстановление пароля Регистрация
Дом вверх дном / Bringing Down the House (Адам Шенкман, комедия, 2003) [BDRip, Профессиональный (многоголосый, закадровый)]
Рейтинг:
(голосов: 1)



[img]{THEME}/images/logopost.png[/img]



• Дом вверх дном / Bringing Down the House • «Всё, что ему нужно знать о жизни, она узнала в тюрьме.»
♥ Год выпуска: 2003
♥ Страна: США
♥ Производство: Hyde Park Films, Touchstone Pictures
♥ Жанр: комедия

♥ Режиссёр: Адам Шенкман
♥ В ролях: Стив Мартин, Куин Латифа , Юджин Леви , Джоан Плаурайт , Джин Смарт , Кимберли Дж. Браун , Энгус Т. Джонс , Мисси Пайл , Майкл Розенбаум , Бетти Уайт , Стив Харрис , Джим Хейни

♥ Перевод: Профессиональный (многоголосый, закадровый)
♥ Субтитры: Отсутствуют

♥ Описание: Немолодой одинокий мужчина знакомится с женщиной через Интернет и назначает ей свидание. Откуда ему знать, что вместо милой застенчивой красавицы он столкнётся с пышнотелой, грубой и невоспитанной афроамериканкой, к тому же сбежавшей из тюрьмы, а сейчас явно собирающейся перевернуть его налаженную, размеренную жизнь верх дном


MediaInfo ▼
TextGeneral
Complete name : C:Dom.vverh.dnom.2003.XviD.BDRip.2003.avi
Format : AVI
Format/Info : Audio Video Interleave
File size : 1.46 GB
Duration : 01:45:12
Overall bit rate : 2 046 Kbps
Movie name : Дом вверх дном / Bringing Down the House [2003] BDRip
Director : Koko
Genre : комедия
Writing application : VirtualDubMod 1.5.10.3 | (build 2550/release)
Writing library : VirtualDubMod build 2550/release
Video #0
ID : 0
Format : MPEG-4 Visual
Format profile : Advanced [email protected]
Format settings, BVOP : 1
Format settings, QPel : No
Format settings, GMC : No warppoints
Format settings, Matrix : Custom
Codec ID : XVID
Codec ID/Hint : XviD
Duration : 01:45:12
Bit rate : 1 652 Kbps
Width : 720 pixels
Height : 304 pixels
Display aspect ratio : 2.35:1
Frame rate : 23.976 fps
Color space : YUV
Chroma subsampling : 4:2:0
Bit depth : 8 bits
Scan type : Progressive
Compression mode : Lossy
Bits/(Pixel*Frame) : 0.315
Stream size : 19.8 MiB (81%)
Writing library : XviD 73
Audio #1
ID : 1
Format : AC-3
Format/Info : Audio Coding 3
Mode extension : CM (complete main)
Codec ID : 2000
Duration : 01:45:12
Bit rate mode : Constant
Bit rate : 384 Kbps
Channel(s) : 6 channels
Channel positions : Front: L C R, Side: L R, LFE
Sampling rate : 48.0 KHz
Bit depth : 16 bits
Compression mode : Lossy
Delay relative to video : 14ms
Stream size : 4.61 MiB (19%)
Alignment : Split accross interleaves
Interleave, duration : 42 ms (1.00 video frame)
Interleave, preload duration : 500 ms
♥ Качество: BDRip (Исх.Blu-Ray Remux)
♥ Продолжительность: 01
f12ffbd4a26a10a239bd3d325a39a3918709ed0fДом вверх дном / Bringing Down the House (Адам Шенкман, комедия, 2003) [BDRip, Профессиональный (многоголосый, закадровый)] Дом вверх дном / Bringing Down the House (Адам Шенкман, комедия, 2003) [BDRip, Профессиональный (многоголосый, закадровый)] " />

Аплоадер: Админ, дата: 14-12-2012, 16:47, торрент скачан: 359 раз

Понравилась раздача? Посмотрите эти:
  • Погнали! / Getaway (Кортни Соломон, Боевик, Криминал, 2013) [HDRip, Професс ...
  • Вирус / Flu (Ким Сон Су, Драма, 2013) [HDTVRip, Любительский (двухголосый з ...
  • Орудие смерти / A-i-deul... (Ли Гю Ман, Триллер, криминал, 2011) [DVDRip, П ...
  • Верное дельце / Une pure affaire (Александр Коффре, Боевик, Комедия, Кримин ...
  • Мои герои / Mes heros (Эрик Беснард, комедия, 2012) [HDRip, Профессиональны ...
  • Мужество / Wymyk (Грег Зглински, драма, 2011) [DVDRip, Любительский (одного ...
  • 42 / 42 (Брайан Хелгеленд, драма, биография, спорт, 2013) [BDRip, Профессио ...
  • 23:59 / 23:59 (Гилберт Чан, Ужасы, 2011) [HDRip, Любительский (одноголосый ...
  • МЫ. Верим в любовь / W.E. (Мадонна, Драма, мелодрама, история, 2011) [BDRip ...
  • В хлам / Smashed (Джеймс Понсольдт, Драма, комедия, 2012) [HDRip, Профессио ...
  • Весенние надежды / Hope Springs (Дэвид Фрэнкел, Драма, мелодрама, комедия, ...
  • Плохая актриса / Bad Actress (Роберт Ли Кинг, комедия, 2011) [DVDRip, Профе ...
  • Акулы пера / Soloalbum (Грегор Шнитцлер, мелодрама, комедия, 2003) [BDRip, ...
  • Джефф, живущий дома / Jeff, Who Lives at Home (Джей Дюпласс, Марк Дюпласс, ...
  • Супер циклон / Super Cyclone (Лиз Адамс / Liz Adams, боевик, 2012) [HDRip, ...
  • Захват / Carjacked (Джон Бонито, триллер, 2011)[BDRip, Профессиональный (мн ...
  • Последний отпуск / Last Holiday (Уэйн Ван, Драма, комедия, приключения, 200 ...
  • Трус / Faintheart (Вито Рокко, Комедия, 2008) [BDRip, Профессиональный (дву ...
  • Супершторм в Сиэтле / Seattle Superstorm (Джейсон Бурк, фантастика, боевик ...
  • Девушки в опасности / Damsels in Distress (Уит Стиллман, драма, мелодрама, ...
  • Информация
    Посетители, находящиеся в группе Гости, не могут оставлять комментарии к данной публикации.