вход на сайт

Имя пользователя :
Пароль :

Восстановление пароля Регистрация
Холостячки / Bachelorette (Лесли Хэдланд, комедия, 2012) [HDRip, Дубляж]
Рейтинг:
(голосов: 1)



[img]{THEME}/images/logopost.png[/img]



• Холостячки / Bachelorette •
♥ Год выпуска: 2012
♥ Страна: США
♥ Производство: BCDF Pictures
♥ Жанр: комедия

♥ Режиссёр: Лесли Хэдланд
♥ В ролях: Кирстен Данст, Айла Фишер, Лиззи Каплан, Джеймс Марсден, Кайл Борнхеймер, Ребел Уилсон, Адам Скотт, Энди Раннеллс, Хэйес МакАртур, Элла Рэй Пек

♥ Перевод: Дубляж
♥ Субтитры: Отсутствуют

♥ Описание: Три симпатичные и острые на язык незамужние подруги приезжают на свадьбу бывшей одноклассницы-толстушки и… случайно портят впечатляющее своими размерами подвенечное платье невесты. А ведь завтра ей идти к алтарю! За одну ночь холостячкам предстоит проделать головокружительное путешествие по стрип-клубам, туалетным комнатам и мужским спальням во имя спасения свадьбы той, которую они терпеть не могут.


MediaInfo ▼
TextGeneral
Complete name : C:holostjachki.2012.avi
Format : AVI
Format/Info : Audio Video Interleave
File size : 1.44 GiB
Duration : 1h 27mn
Overall bit rate : 2 365 Kbps
Movie name : holostjachki.2012.hdrip.ac3.
Director : riperrr
Writing application : VirtualDubMod 1.5.10.3 | (build 2550/release)
Video #0
ID : 0
Format : MPEG-4 Visual
Format profile : Advanced [email protected]
Format settings, BVOP : 1
Format settings, QPel : No
Format settings, GMC : No warppoints
Format settings, Matrix : Custom
Codec ID : XVID
Codec ID/Hint : XviD
Duration : 1h 27mn
Bit rate : 1 907 Kbps
Width : 704 pixels
Height : 288 pixels
Display aspect ratio : 2.40:1
Frame rate : 23.976 fps
Color space : YUV
Chroma subsampling : 4:2:0
Bit depth : 8 bits
Scan type : Progressive
Compression mode : Lossy
Bits/(Pixel*Frame) : 0.392
Stream size : 1.16 GiB (81%)
Writing library : XviD 65
Audio #1
ID : 1
Format : AC-3
Format/Info : Audio Coding 3
Mode extension : CM (complete main)
Codec ID : 2000
Duration : 1h 27mn
Bit rate mode : Constant
Bit rate : 448 Kbps
Channel(s) : 6 channels
Channel positions : Front: L C R, Side: L R, LFE
Sampling rate : 48.0 KHz
Bit depth : 16 bits
Compression mode : Lossy
Stream size : 279 MiB (19%)
Alignment : Split accross interleaves
Interleave, duration : 42 ms (1.00 video frame)
Interleave, preload duration : 500 ms
♥ Качество: HDRip |Сэмпл
♥ Продолжительность: 01:27:07

♥ Формат: AVI
♥ Видео кодек: XviD
♥ Аудио кодек: AC3
♥ Видео: 704x288 (2.40:1), 23.976 fps, XviD build 50 ~1907 kbps avg, 0.392 bit/pixel
♥ Аудио: 48 kHz, AC3 Dolby Digital, 3/6 (L,C,R,l,r) + LFE ch, ~448 kbps avg

♥ Дата премьеры (мир): 23 января 2012
♥ Дата премьеры (РФ): 6 сентября 2012, «Top Film Distribution»

Релиз Группы "Virtus"

Стол заказов / Вступление в РГ / Благодарности, критика и другое


d43e38333d976abc8feb47f923bb04be5713c0f8Холостячки / Bachelorette (Лесли Хэдланд, комедия, 2012) [HDRip, Дубляж] Холостячки / Bachelorette (Лесли Хэдланд, комедия, 2012) [HDRip, Дубляж] " />

Аплоадер: Админ, дата: 12-12-2012, 21:53, торрент скачан: 359 раз

Понравилась раздача? Посмотрите эти:
  • Холостячки / Bachelorette (Лесли Хэдланд, комедия, 2012) [HDRip-AVC, Профес ...
  • Холостячки / Bachelorette (Лесли Хэдланд, Комедия, 2012) [BDRip 720p, Профе ...
  • Холостячки / Bachelorette (Лесли Хэдланд, Комедия, 2012) [BDRip 1080p, Проф ...
  • Верное дельце / Une pure affaire (Александр Коффре, Боевик, Комедия, Кримин ...
  • Мои герои / Mes heros (Эрик Беснард, комедия, 2012) [HDRip, Профессиональны ...
  • Холостячки / Bachelorette (Лесли Хэдланд, комедия, мелодрама, 2012) [HDRip- ...
  • Звук моего голоса / Sound of My Voice (Зал Батманглидж, триллер, драма, 201 ...
  • Любовь на кончиках пальцев / Populaire (Режис Ройнсар, Мелодрама, комедия, ...
  • Безопасность не гарантируется / Safety Not Guaranteed (Колин Треворроу, фан ...
  • В хлам / Smashed (Джеймс Понсольдт, Драма, комедия, 2012) [HDRip, Профессио ...
  • Холостячки / Bachelorette (Лесли Хэдланд, Комедия, мелодрама, 2012) [480x20 ...
  • Скуби-Ду! Маска Синего Сокола / Scooby-Doo! Mask Of The Blue Falcon (Оливье ...
  • Холостячки / Bachelorette (Лесли Хэдланд, комедия, 2012) [BDRip 720p, Дубли ...
  • Супер циклон / Super Cyclone (Лиз Адамс / Liz Adams, боевик, 2012) [HDRip, ...
  • Холостячки / Bachelorette (Лесли Хэдланд, Комедия, 2012) [DVD5, Дубляж]
  • Чемпионат Европы 2012 / Группа C / 1-й тур / Ирландия — Хорватия / ТРК Футб ...
  • Tank Feat. T.I. & Kris Stephens / Compliments [2012, RnB,Hip-Hop, HDRip]
  • Холостячки / Bachelorette (Лесли Хэдланд, комедия, 2012) [HDRip, Дубляж]
  • Супершторм в Сиэтле / Seattle Superstorm (Джейсон Бурк, фантастика, боевик ...
  • Олимпиада 2012 / Женщины, Мужчины / Плавание / Квалификация / НТВ+ [30.07.2 ...
  • Информация
    Посетители, находящиеся в группе Гости, не могут оставлять комментарии к данной публикации.