вход на сайт

Имя пользователя :
Пароль :

Восстановление пароля Регистрация
Взятки гладки (2 части из 2) (Игорь Масленников, Комедия, 2008) [DVDRip, Не требуется]
Рейтинг:
(голосов: 1)



[img]{THEME}/images/logopost.png[/img]



Взятки гладки (2 части из 2)

Год выпуска: 2008
Страна: Россия
Производство: Миракль-Фильм, Студия Троицкий мост
Жанр: Комедия

Режиссёр: Игорь Масленников
В ролях: Петр Квасов, Елена Радевич, Степан Пивкин, Олег Басилашвили, Константин Воробьёв, Юлия Денисова, Виталий Куликов, Мария Жильченко

Перевод: Не требуется
Субтитры: Отсутствуют

Описание:
Фильм является современной экранизацией незабвенной пьесы Александра Островского «Доходное место».


Дополнительно:
MediaInfo ▼Text
"1 часть" ▼Общее
Полное имя :J:1. РАЗДАЧАВзятки гладкиVzjatki.gladki.2.serii.iz.2.2008Vzjatki.gladki.1.serija.iz.2.2008.avi
Формат :AVI
Размер :700 MiB
Продолжительность :00:51:38.480
Общий поток :1 896 Kbps
Программа кодирования :VirtualDubMod 1.5.4.1 (build 2178/release)
Библиотека кодирования :VirtualDubMod build 2178/release

Видео
Идентификатор :0
Формат :MPEG-4 Visual
Профиль формата :Advanced [email protected]
Параметр BVOP формата :1
Параметр Qpel формата :No
Параметр GMC формата :0
Параметр Matrix формата :Custom
Идентификатор кодека :XVID
Продолжительность :51mn 38s 480ms
Битрейт :1 441 Kbps
Ширина :720 pixels
Высота :416 pixels
Соотношение сторон :1.731
Частота кадров :25.000 fps
Глубина цвета :8 bits
Подвыборка цветности :4:2:0
Цветовое пространство :YUV
Тип развертки :Progressive
Бит/(Пиксели*Кадры) :0.192
Размер потока :532 MiB (76%)
Библиотека кодирования :XviD0050

Аудио #1
Идентификатор :1
Формат :AC-3
Формат/Информация :Audio Coding 3
Идентификатор кодека :2000
Продолжительность :00:51:38.432
Вид битрейта :Constant
Битрейт :448 Kbps
Канал(ы) :6 channels
Расположение каналов :Front: L C R, Side: L R, LFE
Частота :48.0 KHz
Битовая глубина :16 bits
Метод сжатия :Lossy
Размер потока :165 MiB (24%)

"2 часть" ▼Общее
Полное имя
e8e9b7498d0b8a6cc6b9ef7289efab937987c41aВзятки гладки (2 части из 2) (Игорь Масленников, Комедия, 2008) [DVDRip, Не требуется] Взятки гладки (2 части из 2) (Игорь Масленников, Комедия, 2008) [DVDRip, Не требуется] " />

Аплоадер: Админ, дата: 11-12-2012, 18:49, торрент скачан: 359 раз

Понравилась раздача? Посмотрите эти:
  • Дни хирурга Мишкина (3 части из 3) (Вадим Зобин, драма, 1967) [DVDRip, Не т ...
  • Отпуск за свой счет (2 части из 2) (Виктор Титов, мелодрама, комедия, 1981) ...
  • Мир дому твоему (2 части из 2) (Константин Райкин, Аркадий Райкин, Марк Орл ...
  • Люди и манекены (4 части из 4) (Виктор Храмов, Аркадий Райкин, комедия, 197 ...
  • Дон Сезар де Базан (2 части из 2) (Ян Фрид, мюзикл, комедия, 1989) [DVDRip, ...
  • Покровские ворота (2 части из 2) (Михаил Козаков, мюзикл, драма, мелодрама, ...
  • Ночные забавы (2 части из 2. Реставрирован) (Владимир Краснопольский, Валер ...
  • Комедия ошибок (2 части из 2) (Вадим Гаузнер, комедия, 1978) [DVDRip, Не тр ...
  • Карнавал (2 части из 2) (Татьяна Лиознова, мюзикл, комедия, 1981) [DVDRip, ...
  • Пиковая дама (Игорь Масленников, драма, 1982) [DVDRip, Не требуется]
  • Степь (2 части из 2) (Сергей Бондарчук, драма, история, 1977) [DVDRip, Не т ...
  • Трест, который лопнул (3 части из 3) (Александр Павловский, мюзикл, комедия ...
  • Чучело (2 части из 2) (Ролан Быков, Аркадий Хайт, драма, 1983) [DVDRip, Не ...
  • Слушать в отсеках (2 части из 2) (Николай Засеев-Руденко, приключения, 1985 ...
  • У меня есть лев (2 части из 2) (Константин Бромберг, драма, комедия, приклю ...
  • Руслан и Людмила (2 части из 2) (Александр Птушко, фэнтези, детектив, 1972) ...
  • Приморский бульвар (2 части из 2) (Александр Полынников, мюзикл, комедия, 1 ...
  • Почти смешная история (2 части из 2) (Петр Фоменко, мелодрама, комедия, 197 ...
  • Сказка о Звездном мальчике (2 части из 2) (Леонид Нечаев, фэнтези, 1983) [D ...
  • Тихий Дон (3 части из 3) (Сергей Герасимов, драма, военный, 1957) [DVDRip, ...
  • Рок-н-ролл для принцесс (2 части из 2) (Радомир Василевский, Комедия, семей ...
  • В лесах под Ковелем (3 части из 3) (Юрий Тупицкий, военный, история, 1984) ...
  • Гений (2 части из 2) (Виктор Сергеев, Комедия, криминал, 1991) [DVDRip, Не ...
  • Дядюшкин сон (2 части из2) (Александр Орлов, драма, комедия, 1981) [DVDRip, ...
  • Каникулы Петрова и Васечкина, обыкновенные и невероятные (2 части из 2) (Вл ...
  • Информация
    Посетители, находящиеся в группе Гости, не могут оставлять комментарии к данной публикации.