вход на сайт

Имя пользователя :
Пароль :

Восстановление пароля Регистрация
В Россию за любовью! (Арман Геворгян, Комедия, 2012) [DVDRip, Не требуется]
Рейтинг:
(голосов: 1)



[img]{THEME}/images/logopost.png[/img]



В Россию за любовью!

Год выпуска: 2012
Страна: Россия
Производство: CP Дистрибуция
Жанр: Комедия

Режиссёр: Арман Геворгян
В ролях: Сергей Даниелян, Елена Захарова, Фрида Йорк, Карен Мартиросян, Александр Песков, Наталья Громушкина, Михаил Полицеймако, Сергей Астахов, Сергей Лавыгин, Наталья Бардо

Перевод: Не требуется
Субтитры: нет

Описание: В Россию для постановки скандальной пьесы «Три служанки одного господина» возвращается прославленный режиссер Станислав Краскович. Но цель его не родина и даже не работа, а Мария — актриса, в которую он влюблен много лет, но не решается ей в этом признаться. Однако, есть маленькая загвоздка — мечта всей его жизни некстати оказывается замужем за самовлюбленным и прагматичным ловеласом.
И всё-таки они решаются на встречу в его квартире, чтобы обсудить её роль в пьесе. Но проблема в том, что в борьбу с ней за роль и режиссера вступают молодая актриса Катя, переодевшаяся служанкой, и экспрессивная соседка Кристина, муж которой — Оружейный барон — спонсировал театральную постановку Станислава.
И всё бы ничего, если бы в дело не вмешались пистолеты и снотворно-слабительные препараты, весёлые врачи и бешеный консьерж… И только любовь может победить самые коварные обстоятельства!



Качество: DVDRip
Продолжительность: 01:23:24

Формат: AVI
Видео кодек: XviD
Аудио кодек: МР3
Видео: 656x368 (16:9), 25 fps, XviD ~ 1117 kbps avg, 0.185 bit/pixe
Аудио: 48 kHz, МР3 , 2 ch, 128.00 kbps
Mediainfo ▼Общее
Полное имя : V.Rossiyu.za.lubovyu.2012.O.DVDRip.745MB_[Youtracker]_by_avproh.avi
Формат : AVI
Формат/Информация : Audio Video Interleave
Размер файла : 748 Мбайт
Продолжительность : 1 ч. 23 м.
Общий поток : 1254 Кбит/сек
Программа кодирования : VirtualDubMod 1.5.10.3 | www.virtualdub-fr.org || (build 2550/release)
Библиотека кодирования : VirtualDubMod build 2550/release

Видео
Идентификатор : 0
Формат : MPEG-4 Visual
Профиль формата : Advanced [email protected]
Параметр BVOP формата : 1
Параметр QPel формата : Нет
Параметр GMC формата : Без точки перехода
Параметр матрицы формата : Выборочная
Идентификатор кодека : XVID
Идентификатор кодека/Подсказка : XviD
Продолжительность : 1 ч. 23 м.
Битрейт : 1117 Кбит/сек
Ширина : 656 пикселей
Высота : 368 пикселей
Соотношение сторон : 16:9
Частота кадров : 25,000 кадров/сек
Цветовое пространство : YUV
Субдискретизация насыщенности : 4:2:0
Битовая глубина : 8 бит
Тип развёртки : Прогрессивная
Метод сжатия : С потерями
Бит/(Пиксели*Кадры) : 0.185
Размер потока : 666 Мбайт (89%)
Библиотека кодирования : XviD 65

Аудио
Идентификатор : 1
Формат : MPEG Audio
Версия формата : Version 1
Профиль формата : Layer 3
Идентификатор кодека : 55
Идентификатор кодека/Подсказка : MP3
Продолжительность : 1 ч. 23 м.
Вид битрейта : Постоянный
Битрейт : 128 Кбит/сек
Каналы : 2 канала
Частота : 48,0 КГц
Метод сжатия : С потерями
Размер потока : 76,4 Мбайт (10%)
Выравнивание : Соединение по промежуткам
Продолжительность промежутка : 40 мс. (1,00 видеокадр)
Время предзагрузки промежутка : 504 мс.


2fd2f0803d7d3fe90807118c9252efea8261f42aВ Россию за любовью! (Арман Геворгян, Комедия, 2012) [DVDRip, Не требуется] В Россию за любовью! (Арман Геворгян, Комедия, 2012) [DVDRip, Не требуется] " />

Аплоадер: Админ, дата: 11-12-2012, 10:55, торрент скачан: 359 раз

Понравилась раздача? Посмотрите эти:
  • Околофутбола (Антон Борматов, драма, криминал, 2013) [DVDRip, Не требуется] ...
  • Грязная кампания за честные выборы / The Campaign (Джей Роуч , Комедия,201 ...
  • Слежка / The Letter (Джей Ананья, Триллер, драма, 2012) [DVDRip, Профессион ...
  • К черному морю (Андрей Тутышкин, мелодрама, комедия, 1957) [DVDRip, не треб ...
  • В Россию за любовью! (Арман Геворгян, Комедия, 2012) [DVDRip-AVC, Не требуе ...
  • Злые птицы: Хэллоуин / Angry Birds: HamOWeen (Джей Ройвайнен, Мультфильм, к ...
  • Кажется, я люблю свою жену / I Think I Love My Wife (Крис Рок, Драма, мелод ...
  • Темный сахар / Brown Sugar (Рик Фамуйива, Драма, мелодрама, комедия, музыка ...
  • Я тоже хочу (Алексей Балабанов, драма, криминал, 2012) [DVDRip, Не требуетс ...
  • Вечерний Ургант // Сезон 2. Выпуск 56 (ТВ-шоу, 11.12.2012) [SATRip, Не треб ...
  • 1812: Уланская баллада (Олег Фесенко, приключения, 2012) [DVDRip, Не требуе ...
  • Бог любви / God of Love (Люк Мэзени, Короткометражка, фэнтези, комедия, мел ...
  • Любовь по расписанию / Поезд (Сергей Мезенцев, мелодрама, 2012) [HDTVRip, Н ...
  • Вечерний Ургант // Сезон 2. Выпуск 62 (ТВ-шоу, 19.12.2012) [SATRip, Не треб ...
  • Вечерний Ургант // Сезон 2. Выпуск 63 (ТВ-шоу, 20.12.2012) [SATRip, Не треб ...
  • Заместитель / Il supplente (Андреа Жублин, Короткометражка, комедия, 2007) ...
  • Вечерний Ургант // Сезон 2. Выпуск 66 (ТВ-шоу, 25.12.2012) [SATRip, Не треб ...
  • Вечерний Ургант // Сезон 2. Выпуск 68 (ТВ-шоу, 27.12.2012) [SATRip, Не треб ...
  • Дорога на... / Road to (Таисия Игуменцева, Комедия, короткометражный, 2011) ...
  • Покорить высоту / Take It to the Limit (Сэм Кит / Sam Kieth, семейный, 2000 ...
  • У дьявола нет лица / Plasterhead (Кевин Хиггинс / Kevin Higgins, ужасы, три ...
  • Детский душ / Baby Shower (Pablo Illanes, Ужасы, 2011) [DVDRip, Любительски ...
  • Пулбой: Спасайся кто может / Poolboy: Drowning Out the Fury (Гарретт Бравит ...
  • Обратный билет (Александр Кананович, Мелодрама, 2012) [SATRip, Не требуется ...
  • Человек из банки (Иван Кульнев, Комедия, 2012) [DVDRip, Не требуется]
  • Информация
    Посетители, находящиеся в группе Гости, не могут оставлять комментарии к данной публикации.