вход на сайт

Имя пользователя :
Пароль :

Восстановление пароля Регистрация
Один дома 5: Праздничное ограбление / Home Alone: The Holiday Heist (Питер Хьюит, комедия, криминал, семейный, 2012) [HDTVRip, Профессиональный (многоголосый закадровый) [BaibaKo]]
Рейтинг:
(голосов: 1)



[img]{THEME}/images/logopost.png[/img]



•Один дома 5: Праздничное ограбление / Home Alone: The Holiday Heist •
♥ Год выпуска: 2012
♥ Страна: США, Канада
♥ Производство: Fox Television Studios, Original Pictures
♥ Жанр: комедия, криминал, семейный

♥ Режиссёр: Питер Хьюит
♥ В ролях: Эдвард Эснер , Питер ДаКуна , Джоделль Ферланд , Элли Харви , Кристиан Мартин , Деби Мейзар , Малкольм МакДауэлл , Даг Мюррэй , Крис Сигурдсон , Эдди Стиплз

♥ Перевод: Профессиональный (многоголосый закадровый) [BaibaKo]
♥ Субтитры: Отсутствуют

♥ Описание: После переезда из солнечной Калифорнии в штат Мэн накануне Рождества, десятилетний Финн и самый младший ребенок в семье, очень непривычно и обеспокоенно чувствует себя в новом доме. Ему кажется, что ужаснее особняка просто и быть не может. Будучи убежденным в обитании здесь потусторонних существ и ради безопасности своей семьи, он подготавливает ловушки, в которые обязательно должны угодить злобные призраки. Оставшись в доме наедине со своей сестрой, малыш умудряется активировать свои сложно устроенные механизмы, в которые попадут вовсе не привидения


MediaInfo ▼
TextGeneral
Complete name : C:Odin.Doma.5.Prazdnichnoe.Ograblehie.2012.HDTVRip.745Mb.avi
Format : AVI
Format/Info : Audio Video Interleave
File size : 746 MiB
Duration : 1h 27mn
Overall bit rate : 1 188 Kbps
Movie name : Odin.Doma.5.Prazdnichnoe.Ograblehie.2012.HDTVRip.745Mb.
Writing application : VirtualDubMod 1.5.10.2 (build 2540/release)
Video #0
ID : 0
Format : MPEG-4 Visual
Format profile : Advanced [email protected]
Format settings, BVOP : 2
Format settings, QPel : No
Format settings, GMC : No warppoints
Format settings, Matrix : Default (MPEG)
Codec ID : XVID
Codec ID/Hint : XviD
Duration : 1h 27mn
Bit rate : 1 051 Kbps
Width : 688 pixels
Height : 384 pixels
Display aspect ratio : 16:9
Frame rate : 23.976 fps
Color space : YUV
Chroma subsampling : 4:2:0
Bit depth : 8 bits
Scan type : Progressive
Compression mode : Lossy
Bits/(Pixel*Frame) : 0.166
Stream size : 659 MiB (88%)
Writing library : XviD 1.2.0.dev47 (UTC 2006-11-01)
Audio #1
ID : 1
Format : MPEG Audio
Format version : Version 1
Format profile : Layer 3
Codec ID : 55
Codec ID/Hint : MP3
Duration : 1h 27mn
Bit rate mode : Constant
Bit rate : 128 Kbps
Channel(s) : 2 channels
Sampling rate : 48.0 KHz
Compression mode : Lossy
Stream size : 80.3 MiB (11%)
Alignment : Aligned on interleaves
Interleave, duration : 42 ms (1.00 video frame)
Interleave, preload duration : 504 ms
Writing library : LAME3.99r
Encoding settings : -m s -V 4 -q 2 -lowpass 17 -b 128
♥ Качество: HDTVRip
♥ Продолжительность: 01:27:44

♥ Формат: AVI
♥ Видео кодек: XviD
♥ Аудио кодек: MP3
♥ Видео: 688x384 (16:9), 24 fps, XviD ~1 051 kbps avg, 0.166 bit/pixel
♥ Аудио1: 48 kHz, MPEG Layer 3, 2 ch, ~128.00 kbps avg

♥ Дата премьеры (мир): 25 ноября 2012


Релиз Группы "Virtus"

Стол заказов / Вступление в РГ / Благодарности, критик
bb968d84395c270f173a8c31ea885e7f70cb9ff0Один дома 5: Праздничное ограбление / Home Alone: The Holiday Heist (Питер Хьюит, комедия, криминал, семейный, 2012) [HDTVRip, Профессиональный (многоголосый закадровый) [BaibaKo]] Один дома 5: Праздничное ограбление / Home Alone: The Holiday Heist (Питер Хьюит, комедия, криминал, семейный, 2012) [HDTVRip, Профессиональный (многоголосый закадровый) [BaibaKo]] " />

Аплоадер: Админ, дата: 13-01-2013, 11:17, торрент скачан: 359 раз

Понравилась раздача? Посмотрите эти:
  • Погнали! / Getaway (Кортни Соломон, Боевик, Криминал, 2013) [HDRip, Професс ...
  • Погнали! / Getaway (Кортни Соломон, Боевик,Криминал, 2013) [HDRip, Професси ...
  • Вирус / Flu (Ким Сон Су, Драма, 2013) [HDTVRip, Любительский (двухголосый з ...
  • Решала (Роман Асхаев, Драма,Криминал, 2012) [WEB-DLRip, Не требуется]
  • Джефф, живущий дома / Jeff, Who Lives at Home (Джей Дюпласс, Марк Дюпласс, ...
  • Один дома 5: Один в темноте / Home Alone: The Holiday Heist (Питер Хьюит, к ...
  • Чемпионат Англии 2011-12 / 36 тур / Челси - Куинз Парк Рейнджерс / Спорт 1 ...
  • Чемпионат Европы 2012 / Группа C / 1-й тур / Ирландия — Хорватия / ТРК Футб ...
  • Чемпионат Европы 2012 / Группа D / 1-й тур / Украина - Швеция / Спорт 1 [11 ...
  • Tank Feat. T.I. & Kris Stephens / Compliments [2012, RnB,Hip-Hop, HDRip]
  • Мулан 2 / Mulan II (Даррел Руни, Линн Сауферлэнд, мультфильм, мюзикл, боеви ...
  • Один дома 4 / Home Alone 4 (Род Дэниэл, комедия, криминал, семейный, 2002) ...
  • Один дома 5: Один в темноте / Home Alone: The Holiday Heist (Питер Хьюит, к ...
  • Чемпионат Англии 2011-12 / 35 тур / Манчестер Юнайтед - Эвертон / Спорт 1 [ ...
  • Чемпионат Англии 2011-12 / 37-й тур / Манчестер Юнайтед - Суонси Сити / Спо ...
  • Чемпионат Европы 2012 / Группа B / 1-й тур / Германия - Португалия / Спорт ...
  • Товарищеский матч 2012 / АмаЗулу (ЮАР) - Манчестер Юнайтед (Англия) / MU TV ...
  • Олимпиада 2012 / Женщины, Мужчины / Плавание / Квалификация / НТВ+ [30.07.2 ...
  • Три балбеса / The Three Stooges (Бобби Фаррелли, Питер Фаррелли, Комедия, 2 ...
  • Крузо / Crusoe (Калеб Дешанель, Драма, 1988) [HDTVRip, Профессиональный (дв ...
  • Информация
    Посетители, находящиеся в группе Гости, не могут оставлять комментарии к данной публикации.