вход на сайт

Имя пользователя :
Пароль :

Восстановление пароля Регистрация
Каникулы в Вегасе / Vegas Vacation (Стивен Кесслер, Комедия, 1997) [HDTVRip, Профессиональный (многоголосый закадровый)]
Рейтинг:
(голосов: 1)



[img]{THEME}/images/logopost.png[/img]



•Каникулы в Вегасе / Vegas Vacation •
♥ Год выпуска: 1997
♥ Страна: США
♥ Производство: Warner Bros. Pictures
♥ Жанр: Комедия

♥ Режиссёр: Стивен Кесслер
♥ В ролях: Чеви Чейз, Беверли дАнджело, Рэнди Куэйд, Итан Эмбри, Марисол Николс, Мириам Флинн, Уэйн Ньютон, Уоллес Шон, Сид Сизар, Хулио Оскар Мечосо

♥ Перевод: Профессиональный (многоголосый закадровый)
♥ Субтитры: Отсутствуют

♥ Описание: Семейство Грисуолдов во главе с папой Кларком полным составом отправляется на отдых в Лас-Вегас. Лас-Вегас, традиционно известный как игорный и развлекательный центр, встречает гостей во всем великолепии. Цирк, эстрада, карнавальные шествия и, конечно, бесчисленные казино, — ну как тут не соблазниться и не попытать счастья?!

Папа Кларк решает, что пусть вся семья развлекается каждый на свой лад. Его жена Эллен вначале возражает, но недостаточно активно. Ее тянет послушать блестящее исполнение песен местной знаменитости Уэйна Ньютона.

Сын Расти легко вошел в тусовку прожигателей жизни, а у младшей дочери Одри произошла сильная переоценка ценностей после того, как она примерила новое платье.

И, наконец, сам глава семьи, увлекшись блэк-джеком и покером, проиграл почти весь семейный бюджет. Отдыхавший поблизости кузен Эдди, большой оригинал, — даже он оказался не самым лучшим советчиком папе Кларку и тоже проигрался… Кто же знал, чем чреваты соблазны Лас-Вегаса?


MediaInfo ▼
TextGeneral
Complete name : C:Каникулы в Вегасе.avi
Format : AVI
Format/Info : Audio Video Interleave
File size : 743 MiB
Duration : 1h 30mn
Overall bit rate : 1 147 Kbps
Writing application : VirtualDubMod 1.5.10.2 (build 2540/release)
Writing library : VirtualDubMod build 2540/release
Video #0
ID : 0
Format : MPEG-4 Visual
Format profile : Advanced [email protected]
Format settings, BVOP : 1
Format settings, QPel : No
Format settings, GMC : No warppoints
Format settings, Matrix : Custom
Codec ID : XVID
Codec ID/Hint : XviD
Duration : 1h 30mn
Bit rate : 1 010 Kbps
Width : 688 pixels
Height : 384 pixels
Display aspect ratio : 16:9
Frame rate : 23.976 fps
Color space : YUV
Chroma subsampling : 4:2:0
Bit depth : 8 bits
Scan type : Progressive
Compression mode : Lossy
Bits/(Pixel*Frame) : 0.159
Stream size : 654 MiB (88%)
Writing library : XviD 1.2.1 (UTC 2008-12-04)
Audio #1
ID : 1
Format : MPEG Audio
Format version : Version 1
Format profile : Layer 3
Codec ID : 55
Codec ID/Hint : MP3
Duration : 1h 30mn
Bit rate mode : Constant
Bit rate : 128 Kbps
Channel(s) : 2 channels
Sampling rate : 48.0 KHz
Compression mode : Lossy
Stream size : 82.9 MiB (11%)
Alignment : Aligned on interleaves
Interleave, duration : 42 ms (1.00 video frame)
Interleave, preload duration : 504 ms
Writing library : LAME3.98r
Encoding settings : -m s -V 4 -q 2 -lowpass 17 -b 128
♥ Качество: HDTVRip
♥ Продолжительность: 01:30:33

♥ Формат: AVI
♥ Видео кодек: XviD
♥ Аудио кодек: MP3
3be667cc19bec4d34ae32a543697734e5d0457efКаникулы в Вегасе / Vegas Vacation (Стивен Кесслер, Комедия, 1997) [HDTVRip, Профессиональный (многоголосый закадровый)] Каникулы в Вегасе / Vegas Vacation (Стивен Кесслер, Комедия, 1997) [HDTVRip, Профессиональный (многоголосый закадровый)] " />

Аплоадер: Админ, дата: 13-01-2013, 14:58, торрент скачан: 359 раз

Понравилась раздача? Посмотрите эти:
  • Непристойная комедия / InAPPropriate Comedy (Винс Оффер, комедия, 2013) [DV ...
  • Погнали! / Getaway (Кортни Соломон, Боевик, Криминал, 2013) [HDRip, Професс ...
  • Погнали! / Getaway (Кортни Соломон, Боевик,Криминал, 2013) [HDRip, Професси ...
  • Вирус / Flu (Ким Сон Су, Драма, 2013) [HDTVRip, Любительский (двухголосый з ...
  • Каникулы в Вегасе / Vegas Vacation (Стивен Кесслер, Комедия, 1997) [HDRip, ...
  • Мои герои / Mes heros (Эрик Беснард, комедия, 2012) [HDRip, Профессиональны ...
  • 42 / 42 (Брайан Хелгеленд, драма, биография, спорт, 2013) [BDRip, Профессио ...
  • Альбатрос / Albatross (Найал МакКормик, Драма, 2011) [DVDRip, Профессиональ ...
  • Псы войны / The Dogs of War (Джон Ирвин, боевик, драма, приключения, военны ...
  • Эрик Викинг / Erik the Viking (Терри Джонс, фэнтези, комедия, приключения, ...
  • Рождественские каникулы / Christmas Vacation (Джеримайя С. Чечик, комедия, ...
  • Захват / Carjacked (Джон Бонито, триллер, 2011)[BDRip, Профессиональный (мн ...
  • Мой парень – псих / Silver Linings Playbook (Дэвид О. Расселл, Драма, мелод ...
  • Чемпионат Европы 2012 / Группа D / 1-й тур / Украина - Швеция / Спорт 1 [11 ...
  • Tank Feat. T.I. & Kris Stephens / Compliments [2012, RnB,Hip-Hop, HDRip]
  • Индиана Джонс: В поисках утраченного ковчега / Indiana Jones and the Raider ...
  • Неделя в NBA с В.Гомельским / НТВ+ [28.06.2011, SD, XviD, RU, SAT]
  • Трус / Faintheart (Вито Рокко, Комедия, 2008) [BDRip, Профессиональный (дву ...
  • Чемпионат Европы 2012 / Группа B / 1-й тур / Германия - Португалия / Спорт ...
  • Глушь / Resurrection County (Matt Zettell, ужасы, триллер, 2008) [DVDRip, П ...
  • Искажение / Skew (Сейв Челенз, ужасы, триллер, 2011) [HDRip, Профессиональн ...
  • Ничего, кроме правды / Nothing But the Truth (Род Лури, триллер, драма, 200 ...
  • Робинзон Крузо / Robinson Crusoe (Род Харди, Джордж Миллер, драма, приключе ...
  • Из джунглей в джунгли / Jungle 2 Jungle (Джон Пасквин, комедия, приключения ...
  • Крузо / Crusoe (Калеб Дешанель, Драма, 1988) [HDTVRip, Профессиональный (дв ...
  • Информация
    Посетители, находящиеся в группе Гости, не могут оставлять комментарии к данной публикации.