вход на сайт

Имя пользователя :
Пароль :

Восстановление пароля Регистрация
Рождественские каникулы / Christmas Vacation (Джеримайя С. Чечик, комедия, 1989) [HDRip, Дубляж]
Рейтинг:
(голосов: 1)



[img]{THEME}/images/logopost.png[/img]



•Рождественские каникулы / Christmas Vacation •
♥ Год выпуска: 1989
♥ Страна: США
♥ Производство: Warner Bros. Pictures Co.
♥ Жанр: комедия

♥ Режиссёр: Джеримайя С. Чечик
♥ В ролях: Чеви Чейз, Беверли дАнджело, Джульетт Льюис, Джонни Галецки, Джон Рэндолф, Дайэн Лэдд, Э.Дж. Маршалл, Дорис Робертс, Рэнди Куэйд, Мириам Флинн, Коуди Бергер

♥ Перевод: Дубляж
♥ Субтитры: Отсутствуют

♥ Описание: В доме Грисуолдов празднуют Рождество. Время, когда дарят подарки, звучат гимны, радостно мерцают огоньки рождественской елки… Но погодите-ка: эта елка вовсе не мерцает. Она вся в огне! Рождество — прекрасное время для Кларка Грисуолда и его семьи.
Кларк — это стихийное бедствие, которое может обрушиться на вас в любой момент. Теперь Кларк хочет во что бы то ни стало устроить своей семье «самый веселый старомодный семейный праздник Рождества из всех. какие были, есть и будут».
Ну и ну! В это трудно поверить, пока вы не увидите все собственными глазами. 25 000 лампочек на крыше дома Грисуолдов. Взрывающийся индюк на столе… Вот это Рождество!


MediaInfo ▼
TextGeneral
Complete name : C:Рождественские каникулы.avi
Format : AVI
Format/Info : Audio Video Interleave
File size : 743 MiB
Duration : 1h 37mn
Overall bit rate : 1 069 Kbps
Writing application : VirtualDubModRus 1.5.10.2 (build 2542/release)
Writing library : VirtualDubMod build 2542/release
Video #0
ID : 0
Format : MPEG-4 Visual
Format profile : Advanced [email protected]
Format settings, BVOP : 1
Format settings, QPel : No
Format settings, GMC : No warppoints
Format settings, Matrix : Custom
Codec ID : XVID
Codec ID/Hint : XviD
Duration : 1h 37mn
Bit rate : 932 Kbps
Width : 656 pixels
Height : 368 pixels
Display aspect ratio : 16:9
Frame rate : 23.976 fps
Color space : YUV
Chroma subsampling : 4:2:0
Bit depth : 8 bits
Scan type : Progressive
Compression mode : Lossy
Bits/(Pixel*Frame) : 0.161
Stream size : 648 MiB (87%)
Writing library : XviD 1.2.1 (UTC 2008-12-04)
Audio #1
ID : 1
Format : MPEG Audio
Format version : Version 1
Format profile : Layer 3
Codec ID : 55
Codec ID/Hint : MP3
Duration : 1h 37mn
Bit rate mode : Constant
Bit rate : 128 Kbps
Channel(s) : 2 channels
Sampling rate : 48.0 KHz
Compression mode : Lossy
Stream size : 89.0 MiB (12%)
Alignment : Aligned on interleaves
Interleave, duration : 42 ms (1.00 video frame)
Interleave, preload duration : 504 ms
Writing library : LAME3.98r
Encoding settings : -m s -V 4 -q 2 -lowpass 17 -b 128
♥ Качество: HDRip
♥ Продолжительность: 01:37:11

♥ Формат: AVI
♥ Видео кодек: XviD
♥ Аудио кодек: MP3
♥ Видео: 656x368 (16:9), 23.976 fps, XviD build 50 ~932 kbps avg, 0.161 bit/pixel
♥ Аудио1: 48 kHz, MPEG Layer 3, 2 ch, ~128.00 kbps avg

♥ Дата премьеры (мир): 30 ноября 1989


Релиз Группы "Virtus"

Стол заказов / Вступление в РГ / Благодарности, критика и другое



65cd17e6c8084f9ee12d88a29342c01814ff066aРождественские каникулы / Christmas Vacation (Джеримайя С. Чечик, комедия, 1989) [HDRip, Дубляж] Рождественские каникулы / Christmas Vacation (Джеримайя С. Чечик, комедия, 1989) [HDRip, Дубляж] " />

Аплоадер: Админ, дата: 9-01-2013, 22:44, торрент скачан: 359 раз

Понравилась раздача? Посмотрите эти:
  • Погнали! / Getaway (Кортни Соломон, Боевик,Криминал, 2013) [HDRip, Професси ...
  • Решала (Роман Асхаев, Драма,Криминал, 2012) [WEB-DLRip, Не требуется]
  • Родительский беспредел / Parental Guidance (Энди Фикмен, комедия, семейный, ...
  • В хлам / Smashed (Джеймс Понсольдт, Драма, комедия, 2012) [HDRip, Профессио ...
  • Магазин самоубийств / Le magasin des suicides (Патрис Леконт, Мультфильм, м ...
  • Скуби-Ду! Маска Синего Сокола / Scooby-Doo! Mask Of The Blue Falcon (Оливье ...
  • Рождественские каникулы / Christmas Vacation (Джеримайя С. Чечик /Jeremiah ...
  • Рождественские каникулы / Christmas Vacation (Джон Хьюз, комедия, 1989) [BD ...
  • Эрик Викинг / Erik the Viking (Терри Джонс, фэнтези, комедия, приключения, ...
  • Держись, Чарли! Это Рождество! / Good Luck Charlie, Its Christmas! (Арлин С ...
  • Каникулы в Вегасе / Vegas Vacation (Стивен Кесслер, Комедия, 1997) [HDTVRip ...
  • Чемпионат Европы 2012 / Группа C / 1-й тур / Ирландия — Хорватия / ТРК Футб ...
  • Чемпионат Европы 2012 / Группа D / 1-й тур / Украина - Швеция / Спорт 1 [11 ...
  • Олимпиада 2012 / Мужчины / Группа D / 1-й тур / Испания — Япония / НТВ+ [Фу ...
  • Tank Feat. T.I. & Kris Stephens / Compliments [2012, RnB,Hip-Hop, HDRip]
  • Мулан 2 / Mulan II (Даррел Руни, Линн Сауферлэнд, мультфильм, мюзикл, боеви ...
  • Холостячки / Bachelorette (Лесли Хэдланд, комедия, 2012) [HDRip, Дубляж]
  • Последняя сказка Риты (Рената Литвинова, Фентези, драма, детектив, 2012) [D ...
  • Неделя в NBA с В.Гомельским / НТВ+ [28.06.2011, SD, XviD, RU, SAT]
  • Ключ от всех дверей / The Skeleton Key (Иэн Софтли, ужасы, 2005) [HDRip, Ду ...
  • Военные игры / War Games: At the End of the Day(Козимо Алема, Триллер, Ужас ...
  • Чемпионат Европы 2012 / Группа B / 1-й тур / Германия - Португалия / Спорт ...
  • Товарищеский матч 2012 / АмаЗулу (ЮАР) - Манчестер Юнайтед (Англия) / MU TV ...
  • Олимпиада 2012 / Женщины, Мужчины / Плавание / Квалификация / НТВ+ [30.07.2 ...
  • Искажение / Skew (Сейв Челенз, ужасы, триллер, 2011) [HDRip, Профессиональн ...
  • Информация
    Посетители, находящиеся в группе Гости, не могут оставлять комментарии к данной публикации.