вход на сайт

Имя пользователя :
Пароль :

Восстановление пароля Регистрация
Бобро Поржаловать / Bienvenue chez les Chtis (Дани Бун, Комедия, 2008) [BDRip 720p, Полное дублирование]
Рейтинг:
(голосов: 1)



[img]{THEME}/images/logopost.png[/img]



Бобро Поржаловать / Bienvenue chez les Chtis
«Уж лучше вы к нам»

Год выпуска: 2008
Страна: Франция
Производство: Pathé Renn Productions
Жанр: Комедия

Режиссёр: Дани Бун
В ролях: Кад Мерад, Дани Бун, Зоэ Феликс, Lorenzo Ausilia-Foret, Энн Маривин, Филипп Дюкен, Гай Леклюиз, Лайн Рено, Мишель Галабрю, Стефан Фрейсс

Перевод: Полное дублирование
Субтитры: Отсутствуют

Описание: Филипп Абрамс, начальник почтового отделения на юге Франции в Салон-де-Прованс делает всё для того, чтобы быть переведённым по службе в Кассис, райский уголок близ Марселя. Однако все его старания и мечты идут крахом, когда за мелкое служебное нарушение он получает дисциплинарный перевод на два года в Берг на Севере, близ Дюнкерка. Для людей с Юга Франции, наполненных стереотипами, Север — это ужас, полярный регион, населённый грубыми существами, разговаривающими на непонятном языке. К своему великому изумлению, Филипп Абрамс обнаруживает там очаровательное место, тёплую команду, гостеприимных людей и приобретает новых друзей.



Качество: BDRip 720p | Сэмпл
Продолжительность: 01:46:01 час.

Формат: MKV
Видео кодек: H.264
Аудио кодек: AC3
Видео: 1280x546 (2,35:1), 24.000 fps, AVC, ~2 605 Kbps, 0.152 bit/pixel
Аудио#1: 48 kHz, AC3, 6 ch, ~384 kbps avg

Бюджет Фильма: € 11 000 000
Кассовые сборы: $245 128 811

Интересные факты ▼TextСобрав в первую неделю проката рекордные 25.5 млн. евро, фильм обошел по этому показателю предыдущего рекордсмена - картину «Веселые и загорелые» (2006).

Во Франции фильм посмотрели 20.5 млн. человек, что также стало рекордом со времен фильма «Большая прогулка» (1966) с 17.3 млн. зрителей.

Режиссер фильма Дэни Бун сыграл одну из главных ролей.
MediaInfo ▼TextGeneral
Format : Matroska
File size : 2.21 GiB
Duration : 1h 46mn
Overall bit rate : 2 990 Kbps
Encoded date : UTC 2011-07-22 15:18:57
Writing application : mkvmerge v4.6.0 (Still Crazy After All These Years) built on Mar 10 2011 02:50:32
Writing library : libebml v1.2.0 + libmatroska v1.1.0

Video
ID : 1
Format : AVC
Format/Info : Advanced Video Codec
Format profile : [email protected]
Format settings, CABAC : Yes
Format settings, ReFrames : 6 frames
Muxing mode : Container [email protected]
Codec ID : V_MPEG4/ISO/AVC
Duration : 1h 46mn
Bit rate : 2 546 Kbps
Nominal bit rate : 2 605 Kbps
Width : 1 280 pixels
Height : 546 pixels
Display aspect ratio : 2.35:1
Original display aspect ratio : 2.35:1
Frame rate : 24.000 fps
Resolution : 8 bits
Colorimetry : 4:2:0
Scan type : Progressive
Bits/(Pixel*Frame) : 0.152
Stream size : 1.89 GiB (85%)
Writing library : x264 core 115 r2008 4c552d8
Encoding settings : cabac=1 / ref=6 / deblock=1:0:0 / analyse=0x3:0x113 / me=umh / subme=8 / psy=1 / psy_rd=1.00:0.00 / mixed_ref=1 / me_range=16 / chroma_me=1 / trellis=1 / 8x8dct=1 / cqm=0 / deadzone=21,11 / fast_pskip=1 / chroma_qp_offset=-2 / threads=3 / sliced_threads=0 / slices=4 / nr=0 / decimate=1 / interlaced=0 / bluray_compat=1 / constrained_intra=0 / bframes=3 / b_pyramid=0 / b_adapt=1 / b_bias=0 / direct=3 / weightb=1 / open_gop=0 / weightp=1 / keyint=24 / keyint_min=1 / scenecut=40 / intra_refresh=0 / rc_lookahead=24 / rc=2pass / mbtree=1 / bitrate=2605 / ratetol=1.0 / qcomp=0.60 / qpmin=0 / qpmax=69 / qpstep=4 / cplxblur=20.0 / qblur=0.5 / vbv_maxrate=15000 / vbv_bufsize=15000 / nal_hrd=vbr / ip_ratio=1.10 / aq=1:1.00

Audio
ID : 2
Format : AC-3
Format/Info : Audio Coding 3
Codec ID : A_AC3
Duration : 1h 46mn
Bit rate mode : Constant
Bit rate : 384 Kbps
Channel(s) : 6 channels
Channel positions : Front: L C R, Surround: L R, LFE
Sampling rate : 48.0 KHz
Stream size : 291 MiB (13%)

Menu
00:00:00.000 : en:00:00:00.000
00:02:29.416 : en:00:02:29.416
00:06:10.958 : en:00:06:10.958
00:13:27.000 : en:00:13:27.000
00:20:45.208 : en:00:20:45.208
00:26:46.500 : en:00:26:46.500
00:30:28.041 : en:00:30:28.041
00:39:33.500 : en:00:39:33.500
00:44:30.333 : en:00:44:30.333
00:46:17.041
c2164303a704fb88f47508f9f3b271fdb5c8318aБобро Поржаловать / Bienvenue chez les Chtis (Дани Бун, Комедия, 2008) [BDRip 720p, Полное дублирование] Бобро Поржаловать / Bienvenue chez les Chtis (Дани Бун, Комедия, 2008) [BDRip 720p, Полное дублирование] " />

Аплоадер: Админ, дата: 9-01-2013, 16:04, торрент скачан: 359 раз

Понравилась раздача? Посмотрите эти:
  • FLO / NRG [2012, Pop, Dance, MasterRip]
  • Экзамен для двоих / Admission (Пол Вайц, драма, мелодрама, комедия, 2013) [ ...
  • Чемпионат Франции 2013-2014 / 1-й тур / Обзор Матчей / Спорт 1 [12.08.2013, ...
  • UFC The Ultimate 100 Knockouts - PPV [MMA,2013, HDTVRip 720p]
  • Убить Боно / Killing Bono (Ник Хэмм, комедия, 2010) [BDRip 720p, Профессион ...
  • Бобро Поржаловать / Bienvenue chez les Chtis (Дани Бон / Dany Boon, комедия ...
  • Бобро Поржаловать / Bienvenue chez les Chtis ( Дани Бон, комедия, 2008 ) [ ...
  • Бобро Поржаловать / Bienvenue chez les Ch`tis (Дэни Бун, Комедия, 2008) [BD ...
  • Семь жизней (7 жизней) / Seven Pounds (Габриэле Муччино, Драма, 2008) [BDRi ...
  • Бобро Поржаловать / Bienvenue chez les Chtis (Дани Бон, комедия, 2008) [HDR ...
  • Бобро Поржаловать / Bienvenue chez les Chtis (Дэни Бун, комедия, 2008) [BDR ...
  • Как украсть небоскреб / Tower Heist (Бретт Рэтнер / Brett Ratner, Комедия, ...
  • Неуловимый Люк / Lucky Luke (Джеймс Хат, Вестерн, 2009) [HDRip-AVC, Професс ...
  • [3D] Panasonic Demo Disc 3D 2010-2011 [BDrip-AVC 1080p-720p][Оригинал][Anam ...
  • Мой парень из зоопарка / Zookeeper (Фрэнк Корачи, мелодрама, комедия, семей ...
  • Ларри Краун / Larry Crowne (Том Хэнкс, драма, мелодрама, комедия, 2011) [BD ...
  • Мечты сбываются / Deep in the Valley (Кристиан Форте, комедия , 2009) [BDR ...
  • Значит, война / This Means War (МакДжи, боевик, мелодрама, комедия, 2012) [ ...
  • Пейзажи времени / TimeScapes: The Movie (Том Лоу, документальный, видовой, ...
  • Джок / Jock (Дункан МакНили, мультфильм, комедия, приключения, семейный, 20 ...
  • Путешествие на край Вселенной / Journey to the Edge of the Universe (Явар А ...
  • Формула 1. Сезон 2012. Этап 13 из 20. Гран-При Италии, Квалификация. [2012 ...
  • The Australian Pink Floyd Show / Live At Hammersmith Apollo 2011 [2012, Roc ...
  • Mylene Farmer / Du Temps [2011, Pop, HDTVRip]
  • Mylene Farmer / Bleu Noir [2011, Pop, HDTVRip]
  • Информация
    Посетители, находящиеся в группе Гости, не могут оставлять комментарии к данной публикации.