вход на сайт

Имя пользователя :
Пароль :

Восстановление пароля Регистрация
Держись, Чарли! Это Рождество! / Good Luck Charlie, Its Christmas! (Арлин Санфорд, комедия, семейный, 2011) [HDTVRip, Дубляж]
Рейтинг:
(голосов: 1)



[img]{THEME}/images/logopost.png[/img]



•Держись, Чарли! Это Рождество! / Good Luck Charlie, Its Christmas! •
♥ Год выпуска: 2011
♥ Страна: США
♥ Производство: Disney Channel, Salty Pictures
♥ Жанр: комедия, семейный

♥ Режиссёр: Арлин Санфорд
♥ В ролях: Бриджит Мендлер, Ли-Эллин Бейкер, Брэдли Стивен Перри, Миа Талерико, Эрик Аллан Крамер, Джейсон Долли, Дебра Монк, Майкл Каган, Эбби Кобб, Памела Данлэп

♥ Перевод: Дубляж
♥ Субтитры: Отсутствуют

♥ Описание: Семья Тедди Данкана отправляется в путешествие из своего родного дома в Денвере в Палм Спрингс, где живут родители миссис Данкан. Где-то между Денвером и Ютой они заблудились, но их согласилась подвезти до Лас-Вегаса пожилая чета, ехавшая из Розвелла. В пути оказалось, что эти люди совершенно уверены, что их похищали инопланетяне. И это всего лишь начало приключений семьи Данкан


MediaInfo ▼
TextGeneral
Complete name : C:Good.Luck.Charlie.Its.Christmas!.2011.HDTVRip..avi
Format : AVI
Format/Info : Audio Video Interleave
File size : 1.08 GiB
Duration : 1h 20mn
Overall bit rate : 1 937 Kbps
Writing application : VirtualDubModRus 1.5.10.1 (build 2439/release)
Writing library : VirtualDubMod build 2439/release
Video #0
ID : 0
Format : MPEG-4 Visual
Format profile : Advanced [email protected]
Format settings, BVOP : 2
Format settings, QPel : No
Format settings, GMC : No warppoints
Format settings, Matrix : Default (H.263)
Codec ID : XVID
Codec ID/Hint : XviD
Duration : 1h 20mn
Bit rate : 1 736 Kbps
Width : 720 pixels
Height : 400 pixels
Display aspect ratio : 16:9
Frame rate : 23.976 fps
Color space : YUV
Chroma subsampling : 4:2:0
Bit depth : 8 bits
Scan type : Progressive
Compression mode : Lossy
Bits/(Pixel*Frame) : 0.251
Stream size : 995 MiB (90%)
Writing library : XviD 63
Audio #1
ID : 1
Format : AC-3
Format/Info : Audio Coding 3
Mode extension : CM (complete main)
Codec ID : 2000
Duration : 1h 20mn
Bit rate mode : Constant
Bit rate : 192 Kbps
Channel(s) : 2 channels
Channel positions : Front: L R
Sampling rate : 48.0 KHz
Bit depth : 16 bits
Compression mode : Lossy
Stream size : 110 MiB (10%)
Alignment : Split accross interleaves
Interleave, duration : 42 ms (1.00 video frame)
Interleave, preload duration : 500 ms
♥ Качество: HDTVRip
♥ Продолжительность: 01:20:10

♥ Формат: AVI
♥ Видео кодек: XviD
♥ Аудио кодек: AC3
♥ Видео: 720x400 (16:9), 23.976 fps, XviD build 63 ~1736 kbps avg, 0.251 bit/pixel
♥ Аудио1: 48 kHz, AC3 Dolby Digital, 2/0 (L,R) ch, ~192.00 kbps avg

♥ Дата премьеры (мир): 2 декабря 2011



Релиз Группы "Virtus"

Стол заказов / Вступление в РГ / Благодарности, критика и другое



4b189bfed8850511cc6f465f5842e4dcfdcc3875Держись, Чарли! Это Рождество! / Good Luck Charlie, Its Christmas! (Арлин Санфорд, комедия, семейный, 2011) [HDTVRip, Дубляж] Держись, Чарли! Это Рождество! / Good Luck Charlie, Its Christmas! (Арлин Санфорд, комедия, семейный, 2011) [HDTVRip, Дубляж] " />

Аплоадер: Админ, дата: 7-01-2013, 14:58, торрент скачан: 359 раз

Понравилась раздача? Посмотрите эти:
  • Вирус / Flu (Ким Сон Су, Драма, 2013) [HDTVRip, Любительский (двухголосый з ...
  • Верное дельце / Une pure affaire (Александр Коффре, Боевик, Комедия, Кримин ...
  • Мои герои / Mes heros (Эрик Беснард, комедия, 2012) [HDRip, Профессиональны ...
  • Мужество / Wymyk (Грег Зглински, драма, 2011) [DVDRip, Любительский (одного ...
  • Поймай толстуху, если сможешь [Театральная версия] / Identity Thief [Theatr ...
  • Звук моего голоса / Sound of My Voice (Зал Батманглидж, триллер, драма, 201 ...
  • 23:59 / 23:59 (Гилберт Чан, Ужасы, 2011) [HDRip, Любительский (одноголосый ...
  • Марко Макако / Marco Macaco (Жан Рабек, мультфильм, комедия, семейный, 2012 ...
  • Тюремщик / Screwed (Рег Тревисс / Reg Traviss, Драма, 2011) [DVDRip , Люби ...
  • Плохая актриса / Bad Actress (Роберт Ли Кинг, комедия, 2011) [DVDRip, Профе ...
  • Держись, Чарли! Это Рождество! / Good Luck Charlie, Its Christmas! (Арлин С ...
  • Рождественские каникулы / Christmas Vacation (Джеримайя С. Чечик, комедия, ...
  • Супер циклон / Super Cyclone (Лиз Адамс / Liz Adams, боевик, 2012) [HDRip, ...
  • Захват / Carjacked (Джон Бонито, триллер, 2011)[BDRip, Профессиональный (мн ...
  • Формула 1 2011 / Этап 17 из 19 / Гран-При Индии / Гонка / Спорт 1 [30.10.20 ...
  • Tank Feat. T.I. & Kris Stephens / Compliments [2012, RnB,Hip-Hop, HDRip]
  • Один дома 4 / Home Alone 4 (Род Дэниэл, комедия, криминал, семейный, 2002) ...
  • NBA Finals 2012 / Sportscenter / Четвертая игра под микроскопом / Viasat Sp ...
  • Супершторм в Сиэтле / Seattle Superstorm (Джейсон Бурк, фантастика, боевик ...
  • Олимпиада 2012 / Женщины, Мужчины / Плавание / Квалификация / НТВ+ [30.07.2 ...
  • Информация
    Посетители, находящиеся в группе Гости, не могут оставлять комментарии к данной публикации.