вход на сайт

Имя пользователя :
Пароль :

Восстановление пароля Регистрация
Держись, Чарли! Это Рождество! / Good Luck Charlie, Its Christmas! (Арлин Санфорд, Комедия, семейный, 2011) [HDTV 720p, Дублированный [Невафильм], Оригинал (английский)]
Рейтинг:
(голосов: 1)



[img]{THEME}/images/logopost.png[/img]



Держись, Чарли! Это Рождество! / Good Luck Charlie, Its Christmas!

Информация о фильме
Год выпуска: 2011
Страна: США
Производство: Disney Channel, Salty Pictures
Жанр: Комедия, семейный

Режиссёр: Арлин Санфорд / Arlene Sanford
В ролях: Бриджит Мендлер, Ли-Эллин Бейкер, Брэдли Стивен Перри, Миа Талерико, Эрик Аллан Крамер, Джейсон Долли, Дебра Монк, Майкл Каган, Эбби Кобб, Памела Данлэп

Перевод: Дублированный[Невафильм] + Оригинал (английский)
Озвучка: Ирина Обрезкова
Субтитры: нет

Описание
***
Семья Тедди Данкана отправляется в путешествие из своего родного дома в Денвере в Палм Спрингс, где живут родители миссис Данкан. Где-то между Денвером и Ютой они заблудились, но их согласилась подвезти до Лас-Вегаса пожилая чета, ехавшая из Розвелла. В пути оказалось, что эти люди совершенно уверены, что их похищали инопланетяне. И это всего лишь начало приключений семьи Данкан…

***





Тех.Данные
Качество: HDTV 720p
Продолжительность: ~ 01:20:10 часа

Формат: Matroska-MKV-
Видео кодек: AVC [email protected]
Аудио кодек: Audio Coding 3
Видео: 1280x720 (16:9), 23.976 fps, AVC ~4020 kbps avg, 0.182 bit/pixel
Аудио: 48.00 kHz, Audio Coding 3, 2 (L,R) ch, ~192.00 kbps avgРусский
Аудио: 48.00 kHz, AC3, 3/2 (L,C,R,l,r) + L,F,E ch, ~384 kbps avgАнглийский

MediaInfo ▼TextОбщее
Уникальный идентификатор : 171484923878607812199917528058853044894 (0x8102CB8485AC21ED9735CEAEF49FB29E)
Полное имя : D:DownloadsДержись, Чарли! Это Рождество!.2011.HDTV.720p.mkv
Формат : Matroska
Версия формата : Version 2
Размер файла : 2,63 Гбайт
Продолжительность : 1 ч. 20 м.
Общий поток : 4689 Кбит/сек
Дата кодирования : UTC 2013-01-06 17:07:44
Программа кодирования : mkvmerge v5.2.0 (I cant explain) built on Dec 18 2011 18:12:03
Библиотека кодирования : libebml v1.2.3 + libmatroska v1.3.0

Видео
Идентификатор : 1
Формат : AVC
Формат/Информация : Advanced Video Codec
Профиль формата : [email protected]
Параметр CABAC формата : Да
Параметр ReFrames формата : 5 кадров
Идентификатор кодека : V_MPEG4/ISO/AVC
Продолжительность : 1 ч. 20 м.
Битрейт : 4020 Кбит/сек
Ширина : 1280 пикселей
Высота : 720 пикселей
Соотношение сторон : 16:9
Частота кадров : 23,976 кадра/сек
Цветовое пространство : YUV
Субдискретизация насыщенности : 4:2:0
Битовая глубина : 8 бит
Тип развёртки : Прогрессивная
Бит/(Пиксели*Кадры) : 0.182
Размер потока : 2,25 Гбайт (86%)
Библиотека кодирования : x264 core 119 r2106 07efeb4
Настройки программы : cabac=1 / ref=5 / deblock=1:0:0 / analyse=0x3:0x113 / me=umh / subme=8 / psy=1 / psy_rd=1.00:0.00 / mixed_ref=1 / me_range=16 / chroma_me=1 / trellis=1 / 8x8dct=1 / cqm=0 / deadzone=21,11 / fast_pskip=1 / chroma_qp_offset=-2 / threads=12 / sliced_threads=0 / nr=0 / decimate=1 / interlaced=0 / bluray_compat=0 / constrained_intra=0 / bframes=3 / b_pyramid=2 / b_adapt=2 / b_bias=0 / direct=3 / weightb=1 / open_gop=0 / weightp=2 / keyint=250 / keyint_min=23 / scenecut=40 / intra_refresh=0 / rc_lookahead=50 / rc=crf / mbtree=1 / crf=19.0 / qcomp=0.60 / qpmin=0 / qpmax=69 / qpstep=4 / ip_ratio=1.40 / aq=1:1.00
Default : Да
Forced : Нет

Аудио #1
Идентификатор : 2
Формат : AC-3
Формат/Информация : Audio Coding 3
Расширение режима : CM (complete main)
Идентификатор кодека : A_AC3
Продолжительность : 1 ч. 20 м.
Вид битрейта : Постоянный
Битрейт : 192 Кбит/сек
Каналы : 2 канала
Расположение каналов : Front: L R
Частота : 48,0 КГц
Битовая глубина : 16 бит
Метод сжатия : С потерями
Размер потока : 110 Мбайт (4%)
Язык : Russian
Default : Да
Forced : Нет

Аудио #2
Идентификатор : 3
Формат : AC-3
Формат/Информация : Audio Coding 3
Расширение режима : CM (complete main)
Идентификатор кодека : A_AC3
Продолжительность : 1 ч. 20 м.
Вид битрейта : Постоянный
Битрейт : 384 Кбит/сек
Каналы : 6 каналов
Располо
ac0c960734baeb0204927e6a7a4f9123da5fbbb5Держись, Чарли! Это Рождество! / Good Luck Charlie, Its Christmas! (Арлин Санфорд, Комедия, семейный, 2011) [HDTV 720p, Дублированный [Невафильм], Оригинал (английский)] Держись, Чарли! Это Рождество! / Good Luck Charlie, Its Christmas! (Арлин Санфорд, Комедия, семейный, 2011) [HDTV 720p, Дублированный [Невафильм], Оригинал (английский)] " />

Аплоадер: Админ, дата: 7-01-2013, 12:31, торрент скачан: 359 раз

Понравилась раздача? Посмотрите эти:
  • Мэрайа Мунди и шкатулка Мидаса / The Adventurer: The Curse of the Midas Box ...
  • Джобс: Империя соблазна / jOBS (Джошуа Майкл Штерн, драма, биография, 2013) ...
  • Одноклассники 2 / Grown Ups 2 (Деннис Дуган, комедия, 2013) [BDRip 1080p, Д ...
  • Мальчишник: Часть III / The Hangover Part III (Тодд Филлипс, комедия, 2013) ...
  • Иллюзия обмана / Now You See Me [Extended Cut] (Луи Летерье, триллер, крими ...
  • Заклятие / The Conjuring (Джеймс Ван, ужасы, триллер, 2013) [BDRip 720р, Ду ...
  • Голливудский мусор / Garbage (Филипп Волкен, драма, комедия, 2013) [HDTVRip ...
  • Даю год / I Give It a Year (Дэн Мазер, мелодрама, комедия, 2012) [BDRip-AVC ...
  • Ангелы Чарли / Charlies Angels (МакДжи, Боевик, триллер, комедия, криминал, ...
  • Толстяк на ринге / Here Comes the Boom (Фрэнк Корачи, Боевик, комедия, 2012 ...
  • Чемпионат Англии 2012-2013 / 25-й тур / Обзор / Суббота / BBC Sport [2013 г ...
  • Переростки / The Inbetweeners (Бен Палмер, Комедия, 2011) [BDRip-AVC, Профе ...
  • Убойное Рождество Гарольда и Кумара / A Very Harold & Kumar Christmas (Тодд ...
  • Помогите Стать Отцом / Not Suitable For Children (Питер Темплмен, Мелодрама ...
  • Держись, Чарли! Это Рождество! / Good Luck Charlie, Its Christmas! (Арлин С ...
  • Сид, инструкция по выживанию / Surviving Sid (Гален Т. Чу / Galen T. Chu, К ...
  • Безумные мелодии: Кажется я видел котика / Looney Tunes: I Tawt I Taw а Pud ...
  • [3D] Секретная служба Санта-Клауса / Arthur Christmas (Сара Смит, Бэрри Кук ...
  • История игрушек: Гавайские каникулы / Toy Story: Hawaiian Vacation (Гари ...
  • Заражение / Contagion (Стивен Содерберг, Фантастика, 2011) [BDRip 1080p, Пр ...
  • Бедная богатая девочка / Young Adult (Джейсон Райтман, драма, комедия, 2011 ...
  • Лоракс: Серенада / The Lorax: Serenade (Кайл Балда, мультфильм, комедия, му ...
  • Секретная служба Санта-Клауса / Arthur Christmas (Сара Смит, Бэрри Кук, Мул ...
  • [NG] Гитлеровские лагеря смерти / Hitlers G.I. Death Camp (документальный, ...
  • Сейчас самое время / Now Is Good (Ол Паркер, Мелодрама, 2012) [BDRip-AVC, П ...
  • Информация
    Посетители, находящиеся в группе Гости, не могут оставлять комментарии к данной публикации.