вход на сайт

Имя пользователя :
Пароль :

Восстановление пароля Регистрация
Мальчишник в Новом Орлеане / Mardi Gras: Spring Break (Фил Дорнфелд, Комедия, 2011) [HDRip-AVC, Профессиональный (многоголосый, закадровый)]
Рейтинг:
(голосов: 1)



[img]{THEME}/images/logopost.png[/img]



• Мальчишник в Новом Орлеане / Mardi Gras: Spring Break •
♥ Год выпуска: 2011
♥ Страна: США
♥ Производство: Beacon Pictures / Screen Gems
♥ Жанр: Комедия

♥ Режиссёр: Фил Дорнфелд
♥ В ролях: Дэннил Эклс, Ариэль Кеббел, Николас Д’Агосто, Кармен Электра, Реджина Холл, Джош Гад, Стефани Онор, Ребекка О’Донахью, Марселль Баэр

♥ Перевод: Профессиональный (многоголосый, закадровый)
♥ Субтитры: Нет

♥ Описание: Марди Гра — международный аналог Масленицы. Празднования проходят во всем мире, но самые пышные, массовые и знаменитые по праву принадлежат Новому Орлеану. Именно туда и отправляется группа приятелей из колледжа.♥ Дата премьеры (мир): 23 сентября 2011
♥ Релиз на DVD: 25 октября 2011, «Columbia/Sony»

♥ Качество: HDRip-AVC
♥ Продолжительность: 01:24:59

♥ Формат: MKV
♥ Видео кодек: H.264
♥ Аудио кодек: AC3
♥ Видео: 884x496 (16:9), 23.976fps, AVC ~1 981 kbps avg,0.188 bit/pixel
♥ Аудио: 48 kHz, AC3, 2 ch, ~384 kbps avg


"Mediainfo" ▼
General
Format : Matroska
Format version : Version 4 / Version 2
File size : 1.45 GiB
Duration : 1h 27mn
Overall bit rate : 2 366 Kbps
Movie name : Мальчишник в Новом Орлеане / Mardi Gras: Spring Break (2011) WEB-DL Rip-AVC
Encoded date : UTC 2010-02-22 21:41:31
Writing application : mkvmerge v5.9.0 (On The Loose) built on Dec 9 2012 15:37:01
Writing library : libebml v1.3.0 + libmatroska v1.4.0
Attachment : Yes

Video
ID : 1
Format : AVC
Format/Info : Advanced Video Codec
Format profile : [email protected]
Format settings, CABAC : Yes
Format settings, ReFrames : 12 frames
Codec ID : V_MPEG4/ISO/AVC
Duration : 1h 27mn
Bit rate : 1 981 Kbps
Width : 884 pixels
Height : 496 pixels
Display aspect ratio : 16:9
Frame rate : 23.976 fps
Color space : YUV
Chroma subsampling : 4:2:0
Bit depth : 8 bits
Scan type : Progressive
Bits/(Pixel*Frame) : 0.188
Stream size : 1.19 GiB (82%)
Writing library : x264 core 129 r2230 1cffe9f
Encoding settings : cabac=1 / ref=12 / deblock=1:-1:-1 / analyse=0x3:0x113 / me=umh / subme=10 / psy=1 / psy_rd=1.00:0.10 / mixed_ref=1 / me_range=32 / chroma_me=1 / trellis=2 / 8x8dct=1 / cqm=0 / deadzone=21,11 / fast_pskip=0 / chroma_qp_offset=-3 / threads=6 / lookahead_threads=1 / sliced_threads=0 / nr=0 / decimate=1 / interlaced=0 / bluray_compat=0 / constrained_intra=0 / bframes=12 / b_pyramid=2 / b_adapt=2 / b_bias=0 / direct=1 / weightb=1 / open_gop=0 / weightp=2 / keyint=230 / keyint_min=23 / scenecut=40 / intra_refresh=0 / rc=2pass / mbtree=0 / bitrate=1981 / ratetol=1.0 / qcomp=0.70 / qpmin=0 / qpmax=69 / qpstep=4 / cplxblur=20.0 / qblur=0.5 / ip_ratio=1.40 / pb_ratio=1.30 / aq=2:1.00 / zones=120590,126464,b=0.3
Default : Yes
Forced : No
Color primaries : BT.709-5, BT.1361, IEC 61966-2-4, SMPTE RP177
Transfer characteristics : BT.709-5, BT.1361
Matrix coefficients : BT.709-5, BT.1361, IEC 61966-2-4 709, SMPTE RP177

Audio
ID : 2
Format : AC-3
Format/Info : Audio Coding 3
Mode extension : CM (complete main)
Codec ID : A_AC3
Duration : 1h 27mn
Bit rate mode : Constant
Bit rate : 384 Kbps
Channel(s) : 6 channels
Channel positions : Front: L C R, Side: L R, LFE
Sampling rate : 48.0 KHz
Bit depth : 16 bits
Compression mode : Lossy
Stream size : 241 MiB (16%)
Title : MVO
Language : Russian
Default : Yes
Forced : No

Menu
00:00:00.000 : en:Chapter 1
00:03:32.000 : en:Chapter 2
00:09:51.000 : en:Chapter 3
00:13:58.000 : en:Chapter 4
00:19:20.000 : en:Chapter 5
00:24:33.000 : en:Chapter 6
00:29:08.000 : en:Chapter 7
00:32:38.000 : en:Chapter 8
00:37:56.000 : en:Chapter 9
00:45:53.000 : en:Chapter 10
00:50:51.000 : en:Chapter 11
00:55:14.000 : en:Chapter 12
01:02:00.000 : en:Chapter 13
01:05:52.000 : en:Chapter 14
01:11:12.000 : en:Chapter 15
01:19:40.000 : en:Chapter 16


Релиз Группы "Virtus"

Стол заказов / Вступление в РГ / Благодарности, критика и другое


44a4eb2575066958fe497a8f85080786fce10772Мальчишник в Новом Орлеане / Mardi Gras: Spring Break (Фил Дорнфелд, Комедия, 2011) [HDRip-AVC, Профессиональный (многоголосый, закадровый)] Мальчишник в Новом Орлеане / Mardi Gras: Spring Break (Фил Дорнфелд, Комедия, 2011) [HDRip-AVC, Профессиональный (многоголосый, закадровый)] " />

Аплоадер: Админ, дата: 4-01-2013, 01:22, торрент скачан: 359 раз

Понравилась раздача? Посмотрите эти:
  • Грязь / Filth (Джон С. Бейрд, криминал, драма, комедия, 2013) [BDRip-AVC, ...
  • Даю год / I Give It a Year (Дэн Мазер, Мелодрама, Комедия, 2013) [BDRip-AVC ...
  • О чём молчат девушки (Карен Оганесян, Комедия, 2013) [BDRip-AVC, Не требует ...
  • Пирамида сынов Солнца / Die Pyramide des Sonnengottes (Роберт Сьодмак, Прик ...
  • Мальчишник в Новом Орлеане / Mardi Gras: Spring Break (Фил Дорнфелд, комеди ...
  • Терминал / The Terminal (Стивен Спилберг, комедия, мелодрама, драма, 2004) ...
  • Жизнь прекрасна / La Vita è bella (Роберто Бениньи, Драма, мелодрама, комед ...
  • [3D] Шаг вперед 3D / Step Up 3D (Джон М. Чу, мелодрама, драма, музыка, 2010 ...
  • Секс по дружбе / Friends with Benefits (Уилл Глак, драма, мелодрама, комеди ...
  • Золушка (Надежда Кошеверова, Михаил Шапиро, мюзикл, фэнтези, мелодрама, 194 ...
  • Бриллиантовая рука (Леонид Гайдай, комедия, криминал, приключения, 1968) [B ...
  • Иван Царевич и Серый Волк (Владимир Торопчин, мультфильм, семейный, 2011) [ ...
  • Схватка / The Grey (Джо Карнахан, Боевик, 2012) [BDRip 720p, Профессиональн ...
  • Запрещенная реальность (Константин Максимов, фантастика, боевик, 2009) [BDR ...
  • Выкрутасы (Леван Габриадзе, мелодрама, комедия, спорт, 2011) [ВDRip 720p, Н ...
  • Ю-571 / U-571 (Джонатан Мостоу, Боевик, 2000) [BDRip - AVC, Дубляж + Субтит ...
  • Мальчишник в Новом Орлеане / Mardi Gras: Spring Break (Фил Дорнфелд, комеди ...
  • Мальчишник в Новом Орлеане / Mardi Gras: Spring Break (Фил Дорнфелд, комеди ...
  • Мальчишник в Новом Орлеане / Mardi Gras: Spring Break (Фил Дорнфелд, комеди ...
  • Собачье сердце (Владимир Бортко, фантастика, драма, комедия, 1988) [BDRip 1 ...
  • Информация
    Посетители, находящиеся в группе Гости, не могут оставлять комментарии к данной публикации.