вход на сайт

Имя пользователя :
Пароль :

Восстановление пароля Регистрация
Идеальный Голос / Pitch Perfect (Джейсон Мур, Комедия, музыка, 2012) [BDRip-AVC, Любительский (одноголосый, закадровый) [zamez] + Оригинал + Sub]
Рейтинг:
(голосов: 1)



[img]{THEME}/images/logopost.png[/img]



• Идеальный Голос / Pitch Perfect •
♥ Год выпуска: 2012
♥ Страна: США
♥ Производство: Brownstone Productions (III), Gold Circle Films
♥ Жанр: Комедия, музыка

♥ Режиссёр: Джейсон Мур
♥ В ролях: Анна Кендрик, Скайлар Эстин, Бен Платт, Бриттани Сноу, Анна Кэмп, Ребел Уилсон, Алексис Кнапп, Эстер Дин, Хана Мэй Ли

♥ Перевод: Любительский (одноголосый, закадровый) (Вячеслав Замез)[zamez] + Оригинал (английский)
♥ Субтитры: Russian, English, French, Spanish

♥ Описание: Картина основывается на книге Мики Рэпкина «Пой идеально: Погоня за славной вокалиста а капелла», в которой рассказывается о студентке, внезапно обнаружившей в себе страсть к пению а капелла, то есть, без музыкального сопровождения.♥ Дата премьеры (РФ): 28 сентября 2012
♥ Pелиз на Blu-Ray: 4 апреля 2013, «Двадцатый Век Фокс СНГ»

♥ Качество: BDRip-AVC | исх.BDRip 720p
♥ Продолжительность: 01:52:07

♥ Формат: MKV
♥ Видео кодек: H.264
♥ Аудио кодек: AC3
♥ Видео: 1 024x552 (1.85:1), 23.976fps, AVC2 332 kbps avg,0.172 bit/pixel
♥ Аудио#1: 48 kHz, AC3, 6 ch, ~224 kbps avg - [zamez]
♥ Аудио#2: 48 kHz, AC3, 6 ch, ~224 kbps avg - ENG

"Mediainfo" ▼
General
Format : Matroska
File size : 2.18 GiB
Duration : 1h 52mn
Overall bit rate : 2 782 Kbps
Movie name : Pitch Perfect
Encoded date : UTC 2012-12-25 18:41:31
Writing application : mkvmerge v2.9.9 (Tutu) built on Nov 25 2009 21:13:32
Writing library : libebml v0.7.9 + libmatroska v0.8.1

Video
ID : 1
Format : AVC
Format/Info : Advanced Video Codec
Format profile : [email protected]
Format settings, CABAC : Yes
Format settings, ReFrames : 12 frames
Codec ID : V_MPEG4/ISO/AVC
Duration : 1h 52mn
Bit rate : 2 332 Kbps
Width : 1 024 pixels
Height : 552 pixels
Display aspect ratio : 1.855
Frame rate : 23.976 fps
Color space : YUV
Chroma subsampling : 4:2:0
Bit depth : 8 bits
Scan type : Progressive
Bits/(Pixel*Frame) : 0.172
Stream size : 1.78 GiB (82%)
Title : Pitch Perfect
Writing library : x264 core 119 r2106 07efeb4
Encoding settings : cabac=1 / ref=12 / deblock=1:-3:-3 / analyse=0x3:0x113 / me=umh / subme=11 / psy=1 / psy_rd=1.00:0.00 / mixed_ref=1 / me_range=48 / chroma_me=1 / trellis=2 / 8x8dct=1 / cqm=0 / deadzone=21,11 / fast_pskip=1 / chroma_qp_offset=-2 / threads=12 / sliced_threads=0 / nr=0 / decimate=1 / interlaced=0 / bluray_compat=0 / constrained_intra=0 / bframes=7 / b_pyramid=2 / b_adapt=2 / b_bias=0 / direct=3 / weightb=1 / open_gop=0 / weightp=2 / keyint=250 / keyint_min=20 / scenecut=40 / intra_refresh=0 / rc_lookahead=40 / rc=2pass / mbtree=1 / bitrate=2332 / ratetol=1.0 / qcomp=0.70 / qpmin=0 / qpmax=51 / qpstep=4 / cplxblur=20.0 / qblur=0.5 / ip_ratio=1.40 / aq=1:1.00
Language : English

Audio #1
ID : 2
Format : AC-3
Format/Info : Audio Coding 3
Mode extension : CM (complete main)
Codec ID : A_AC3
Duration : 1h 52mn
Bit rate mode : Constant
Bit rate : 224 Kbps
Channel(s) : 6 channels
Channel positions : Front: L C R, Side: L R, LFE
Sampling rate : 48.0 KHz
Bit depth : 16 bits
Compression mode : Lossy
Stream size : 180 MiB (8%)
Title : AC3.224.Kbps (6ch) Russian VO zamez
Language : Russian

Audio #2
ID : 3
Format : AC-3
Format/Info : Audio Coding 3
Mode extension : CM (complete main)
Codec ID : A_AC3
Duration : 1h 52mn
Bit rate mode : Constant
Bit rate : 224 Kbps
Channel(s) : 6 channels
Channel positions : Front: L C R, Side: L R, LFE
Sampling rate : 48.0 KHz
Bit depth : 16 bits
Compression mode : Lossy
Stream size : 180 MiB (8%)
Title : AC3.224.Kbps (6ch) English
Language : English

Text #1
ID : 4
Format : UTF-8
Codec ID : S_TEXT/UTF8
Codec ID/Info : UTF-8 Plain Text
Title : Russian (Full)
Language : Russian

Text #2
ID : 5
Format : UTF-8
Codec ID : S_TEXT/UTF8
Codec ID/Info : UTF-8 Plain Text
Title : English (SDH)
Language : English

Text #3
ID : 6
Format : UTF-8
Codec ID : S_TEXT/UTF8
Codec ID/Info : U
92277f7720b6137df535411012e865785713c5d8Идеальный Голос / Pitch Perfect (Джейсон Мур, Комедия, музыка, 2012) [BDRip-AVC, Любительский (одноголосый, закадровый) [zamez] + Оригинал + Sub] Идеальный Голос / Pitch Perfect (Джейсон Мур, Комедия, музыка, 2012) [BDRip-AVC, Любительский (одноголосый, закадровый) [zamez] + Оригинал + Sub] " />

Аплоадер: Админ, дата: 2-01-2013, 18:05, торрент скачан: 359 раз

Понравилась раздача? Посмотрите эти:
  • Идеальный голос / Pitch Perfect (Джейсон Мур, мелодрама, комедия, музыка, 2 ...
  • Кровью и потом: Анаболики / Pain & Gain (Майкл Бэй, криминал, комедия, трил ...
  • Идеальный голос / Pitch Perfect (Джейсон Мур, мелодрама, комедия, музыка, 2 ...
  • Идеальный голос / Pitch Perfect (Джейсон Мур, Мелодрама, комедия, музыка, 2 ...
  • Идеальный голос / Pitch Perfect (Джейсон Мур, Мелодрама, комедия, музыка, 2 ...
  • Идеальный голос / Pitch Perfect (Джейсон Мур, Мелодрама, комедия, музыка, 2 ...
  • Идеальный голос / Pitch Perfect (Джейсон Мур, Мелодрама, комедия, музык, 20 ...
  • Идеальный голос / Pitch Perfect (Джейсон Мур, мелодрама, комедия, музыка, 2 ...
  • Идеальный голос / Pitch Perfect (Джейсон Мур, мелодрама, комедия, музыка, 2 ...
  • Идеальный голос / Pitch Perfect (Джейсон Мур, Мелодрама, комедия, музыка, 2 ...
  • Идеальный голос / Pitch Perfect (Джейсон Мур, мелодрама, комедия, музыка, 2 ...
  • Идеальный голос / Pitch Perfect (Джейсон Мур, мелодрама, комедия, музыка, 2 ...
  • Суррогат / The Sessions (Бен Луин, драма, 2012) [BDRip 720p, Профессиональн ...
  • Зубная фея 2 / Tooth Fairy 2 (Алекс Замм, комедия, семейный, 2012) [BDRip 7 ...
  • Цельнометаллическая оболочка / Full Metal Jacket (Стэнли Кубрик, драма, вое ...
  • Персонаж / Stranger Than Fiction (Марк Форстер, Комедия, драма, фантастика, ...
  • Бедная богатая девочка / Young Adult (Джейсон Райтман, драма, комедия, 2011 ...
  • Репортаж из преисподней / [REC] 2 (Жауме Балагуэро, Пако Пласа, ужасы, трил ...
  • Проект X: Дорвались / Project X (Нима Нуризаде, комедия, 2012) [BDRip 720p, ...
  • Ворон / The Raven (Джеймс МакТиг, Триллер, детектив, 2012) [BDRip 720p, Дуб ...
  • Пираньи 3DD / Piranha 3DD (Джон Гулажер, ужасы, триллер, комедия, 2012) [BD ...
  • Идеальный Голос / Pitch Perfect (Джейсон Мур, Комедия, музыка, 2012) [BDRip ...
  • Идеальный Голос / Pitch Perfect (Джейсон Мур, Комедия, музыка, 2012) [HDRip ...
  • Идеальный Голос / Pitch Perfect (Джейсон Мур, Комедия, музыка, 2012) [HDRip ...
  • Идеальный голос / Pitch Perfect (Джейсон Мур, Комедия, музыка, 2012) [HDRip ...
  • Информация
    Посетители, находящиеся в группе Гости, не могут оставлять комментарии к данной публикации.