вход на сайт

Имя пользователя :
Пароль :

Восстановление пароля Регистрация
Дневник слабака 3 / Diary of a Wimpy Kid: Dog Days (Дэвид Бауэрс, Комедия, семейный, 2012) [BDRip-AVC, Профессиональный (многоголосый, закадровый) + Оригинал + SUB]
Рейтинг:
(голосов: 1)



[img]{THEME}/images/logopost.png[/img]



Дневник слабака 3 / Diary of a Wimpy Kid: Dog Days


Год выпуска: 2012
Страна: США, Канада
Производство: Color Force, Fox 2000 Pictures, TCF Vancouver Productions
Жанр: комедия, семейный

Режиссёр: Дэвид Бауэрс
В ролях: Захари Гордан, Стив Зан, Роберт Капрон, Рэйчел Харрис, Пейтон Лист, Кевин Джеймс, Эми Эстерль, Расселл Робертс, Девон Бостик, Каран Брэр, Лэйн МакНил, Эмили Холмс, Энн Опеншоу, Альф Хамфриз

Перевод: Профессиональный (многоголосый закадровый) Лицензия + Оригинал (английский)
Субтитры: Russian, English

Описание: Школа закончилась и Грэг готов к теплым летним денькам. Точнее был готов до того момента, когда все его далеко идущие планы на лето в одночасье накрылись медным тазом. Чем же он теперь будет заниматься все лето?



Качество: BDRip-AVC | Сэмпл
Продолжительность: 01:33:57 час.


Формат: MKV
Видео кодек: x264
Аудио кодек: AC3
Видео: 1072x456 (2.35:1), 23.976 fps, x264 ~2 427 kbps avg, 0.207 bit/pixel
Аудио#1: 48 kHz, AC3, 3/2 (L,C,R,l,r) + LFE ch, ~448 kbps- (Профессиональный (многоголосый закадровый))
Аудио#2: 48 kHz, AC3, 3/2 (L,C,R,l,r) + LFE ch, ~448 kbps- (Оригинал)

Дата премьеры (мир): 3 августа 2012

MediaInfo ▼Общее
Общее
Уникальный идентификатор : 245886464562204933072185941823116077052 (0xB8FC02B042170225AAD2A85768F8E7FC)
Полное имя : D:торрент-раздачиDnevnik.Slabaka.3.2012.P.BDRip.x264.mkv
Формат : Matroska
Версия формата : Version 2
Размер файла : 2,18 Гбайт
Продолжительность : 1 ч. 33 м.
Общий поток : 3321 Кбит/сек
Название фильма : Diary of a Wimpy Kid: Dog Days
Дата кодирования : UTC 2012-11-24 19:43:57
Программа кодирования : mkvmerge v5.7.0 (The Whirlwind) built on Jul 8 2012 20:08:51
Библиотека кодирования : libebml v1.2.3 + libmatroska v1.3.0

Видео
Идентификатор : 1
Формат : AVC
Формат/Информация : Advanced Video Codec
Профиль формата : [email protected]
Параметр CABAC формата : Да
Параметр ReFrames формата : 9 кадров
Идентификатор кодека : V_MPEG4/ISO/AVC
Продолжительность : 1 ч. 33 м.
Битрейт : 2427 Кбит/сек
Ширина : 1072 пикселя
Высота : 456 пикселей
Соотношение сторон : 2,35:1
Режим частоты кадров : Постоянный
Частота кадров : 23,976 кадра/сек
Цветовое пространство : YUV
Субдискретизация насыщенности : 4:2:0
Битовая глубина : 8 бит
Тип развёртки : Прогрессивная
Бит/(Пиксели*Кадры) : 0.207
Размер потока : 1,55 Гбайт (71%)
Заголовок : Дневник слабака 3
Библиотека кодирования : x264 core 128 r2216M 198a7ea
Настройки программы : cabac=1 / ref=10 / deblock=1:-3:-2 / analyse=0x3:0x133 / me=umh / subme=11 / psy=1 / psy_rd=1.05:0.00 / mixed_ref=1 / me_range=32 / chroma_me=1 / trellis=2 / 8x8dct=1 / cqm=0 / deadzone=21,11 / fast_pskip=0 / chroma_qp_offset=-2 / threads=4 / lookahead_threads=1 / sliced_threads=0 / nr=0 / decimate=1 / interlaced=0 / bluray_compat=0 / constrained_intra=0 / bframes=11 / b_pyramid=1 / b_adapt=2 / b_bias=0 / direct=3 / weightb=1 / open_gop=0 / weightp=2 / keyint=240 / keyint_min=23 / scenecut=40 / intra_refresh=0 / rc_lookahead=240 / rc=2pass / mbtree=1 / bitrate=2427 / ratetol=1.0 / qcomp=0.70 / qpmin=0 / qpmax=65 / qpstep=4 / cplxblur=20.0 / qblur=0.5 / vbv_maxrate=20000 / vbv_bufsize=25000 / nal_hrd=none / ip_ratio=1.35 / aq=2:0.70
Язык : English
Default : Да
Forced : Нет

Аудио #1
Идентификатор : 2
Формат : AC-3
Формат/Информация : Audio Coding 3
Расширение режима : CM (complete main)
Параметр Endianness формата : Big
Идентификатор кодека : A_AC3
Продолжительность : 1 ч. 33 м.
Вид битрейта : Постоянный
Битрейт : 448 Кбит/сек
Каналы : 6 каналов
Расположение каналов : Front: L C R, Side: L R, LFE
Частота : 48,0 КГц
Битовая глубина : 16 бит
Метод сжатия : С потерями
Задержка видео : 59 мс.
Размер потока : 301 Мбайт (13%)
Заголовок : DD 5.1 @ 448 kbps - лицензия
Язык : Russian
Default : Да
Forced : Нет

Аудио #2
Идентификатор : 3
Формат : AC-3
Формат/Информация : Audio Coding 3
Расширение режима :
bc3f57e1833ca5cd2b4ffa989e0fbaef2f7f94fcДневник слабака 3 / Diary of a Wimpy Kid: Dog Days (Дэвид Бауэрс, Комедия, семейный, 2012) [BDRip-AVC, Профессиональный (многоголосый, закадровый) + Оригинал + SUB] Дневник слабака 3 / Diary of a Wimpy Kid: Dog Days (Дэвид Бауэрс, Комедия, семейный, 2012) [BDRip-AVC, Профессиональный (многоголосый, закадровый) + Оригинал + SUB] " />

Аплоадер: Админ, дата: 25-11-2012, 12:06, торрент скачан: 359 раз

Понравилась раздача? Посмотрите эти:
  • Одноклассники 2 / Grown Ups 2 (Деннис Дуган, Комедия, 2013) [BDRip-AVC, Про ...
  • Погнали! / Getaway (Кортни Соломон, боевик, криминал, 2013) [BDRip-AVC, Про ...
  • Повар для Президента / Les saveurs du Palais (Кристиан Венсан, комедия, био ...
  • Летучий отряд Скотланд-Ярда / The Sweeney (Ник Лав, Боевик, драма, криминал ...
  • Невероятный Бёрт Уандерстоун / The Incredible Burt Wonderstone (Дон Скардин ...
  • Залив / The Bay (Барри Левинсон, Ужасы, фантастика, триллер, 2012) [BDRip-A ...
  • Порочные игры / Stoker (Пак Чхан Ук, Триллер, драма, детектив, 2013) [BDRip ...
  • Порочные игры / Stoker (Пак Чхан Ук, Триллер, драма, детектив, 2013) [BDRip ...
  • Дневник Бриджит Джонс / Bridget Joness Diary (Шэрон Магуайр, Драма, мелодра ...
  • Крученый мяч / Trouble with the Curve (Роберт Лоренц, Драма, 2012) [BDRip-A ...
  • Суррогат / The Sessions (Бен Луин, Драма, 2012) [BDRip-AVC, Профессиональны ...
  • Ошибка телохранителя / The Girl from the Naked Eye (Дэвид Рен, боевик, трил ...
  • Дневник слабака 2: Правила Родрика / Diary of a Wimpy Kid: Rodrick Rules(Дэ ...
  • Дневник слабака (Трилогия) / Diary of a Wimpy Kid (Trilogy) (Тор Фройдентал ...
  • Эд Вуд / Ed Wood (Тим Бёртон, драма, комедия, биография, 1994) [BDRip-AVC, ...
  • Срочная доставка / Premium Rush (Дэвид Кепп, Боевик, триллер, 2012) [BDRip- ...
  • Поворот не туда 5 / Wrong Turn 5 (Деклан О’Брайэн, ужасы, триллер, 2012) [B ...
  • Дневник слабака 3 / Diary of a Wimpy Kid: Dog Days (Дэвид Бауэрс, Комедия, ...
  • Дневник слабака 3 / Diary of a Wimpy Kid: Dog Days (Дэвид Бауэрс, комедия, ...
  • Дневник слабака / Diary of a Wimpy Kid (Тор Фреденталь, Комедия, Детский, ...
  • [EN] Дневник слабака 2 / Diary of a Wimpy Kid: Rodrick Rules (Дэвид Бауэрс, ...
  • Дневник слабака 2 / Diary of a Wimpy Kid: Rodrick Rules (Дэвид Бауэрс, коме ...
  • Дневник слабака 2 / Diary of a Wimpy Kid: Rodrick Rules (Дэвид Бауэрс, коме ...
  • Дневник слабака 3 / Diary of a Wimpy Kid: Dog Days (Дэвид Бауэрс, Комедия, ...
  • Дневник слабака 3 / Diary of a Wimpy Kid: Dog Days (Дэвид Бауэрс, комедия, ...
  • Информация
    Посетители, находящиеся в группе Гости, не могут оставлять комментарии к данной публикации.