вход на сайт

Имя пользователя :
Пароль :

Восстановление пароля Регистрация
Папа-Досвидос [Театральная версия] / Thats My Boy [Theatrical Cut] (Шон Андерс, комедия, 2012) [BDRip-AVC, Дубляж, Sub]
Рейтинг:
(голосов: 1)



[img]{THEME}/images/logopost.png[/img]



Папа-Досвидос [Театральная версия] / Thats My Boy [Theatrical Cut]
«Пиво и другие семейные ценности»

Год выпуска: 2012
Страна: США
Производство: Columbia Pictures, Happy Madison Productions
Жанр: Комедия
Режиссёр: Шон Андерс
В ролях: Адам Сэндлер, Энди Сэмберг, Лейтон Мистер, Майло Вентимилья, Ванилла Айс, Пегги Стюарт, Блейк Кларк, Меган Фэй, Тони Орландо, Джеймс Каан
Перевод: Дубляж
Субтитры: Русские
Описание: Переспав с «очень плохой училкой» прямо в школе, тинейджер становится отцом «по залету», а его зрелая пассия попадает в тюрьму за совращение малолетнего. Теперь юный папа-одиночка вынужден заботиться о сыне до его совершеннолетия, а затем благополучно исчезает в неизвестном направлении. И вот, много лет спустя, оказавшись на мели, эксцентричный папаша-инфантил словно ураган врывается в жизнь сына накануне его свадьбы и своими безумными выходками переворачивает всё вверх дном.


Качество: BDRip-AVC
Продолжительность: 01:54:28 час.
Формат: MKV
Видео кодек: x264
Аудио кодек: AC3
Видео: 864x360 (2,40:1), 23.976 fps, x264 ~1429 kbps avg, 0.192 bit/pixel
Аудио: 48 kHz, AC3 Dolby Digital, 3/2 (L,C,R,l,r) + LFE ch, ~384.00 kbps avg
Дата премьеры (мир): 4 июня 2012
Дата премьеры (РФ): 19 июля 2012, «WDSSPR»

MediaInfo ▼TextGeneral
Unique ID : 198099465424523224121177768142429489357 (0x950891B9E5BC7274BC9E67505B2808CD)
Complete name : D:Papa-dosvidos.Teatralnaja.versija.2012.BDRip-AVC.mkv
Format : Matroska
Format version : Version 2
File size : 1.45 GiB
Duration : 1h 54mn
Overall bit rate : 1 815 Kbps
Movie name : Thats My Boy (2012) - fanatus
Encoded date : UTC 2012-10-27 10:31:47
Writing application : mkvmerge v3.4.0 (Rapunzel) сборка от May 15 2010 09:38:20
Writing library : libebml v0.8.0 + libmatroska v0.9.0

Video
ID : 1
Format : AVC
Format/Info : Advanced Video Codec
Format profile : [email protected]
Format settings, CABAC : Yes
Format settings, ReFrames : 12 frames
Codec ID : V_MPEG4/ISO/AVC
Duration : 1h 54mn
Bit rate : 1 429 Kbps
Width : 864 pixels
Height : 360 pixels
Display aspect ratio : 2.40:1
Frame rate : 23.976 fps
Color space : YUV
Chroma subsampling : 4:2:0
Bit depth : 8 bits
Scan type : Progressive
Bits/(Pixel*Frame) : 0.192
Stream size : 1.12 GiB (77%)
Title : Thats My Boy (2012)
Writing library : x264 core 128 r2216 198a7ea
Encoding settings : cabac=1 / ref=12 / deblock=1:-2:-2 / analyse=0x3:0x133 / me=umh / subme=11 / psy=1 / psy_rd=1.00:0.05 / mixed_ref=1 / me_range=32 / chroma_me=1 / trellis=2 / 8x8dct=1 / cqm=0 / deadzone=21,11 / fast_pskip=0 / chroma_qp_offset=-3 / threads=16 / lookahead_threads=2 / sliced_threads=0 / nr=0 / decimate=0 / interlaced=0 / bluray_compat=0 / constrained_intra=0 / bframes=10 / b_pyramid=2 / b_adapt=2 / b_bias=0 / direct=3 / weightb=1 / open_gop=0 / weightp=2 / keyint=240 / keyint_min=23 / scenecut=40 / intra_refresh=0 / rc_lookahead=40 / rc=2pass / mbtree=0 / bitrate=1429 / ratetol=1.0 / qcomp=0.65 / qpmin=10 / qpmax=69 / qpstep=3 / cplxblur=20.0 / qblur=0.5 / vbv_maxrate=50000 / vbv_bufsize=62500 / nal_hrd=none / ip_ratio=1.20 / pb_ratio=1.30 / aq=1:0.95 / zones=155231,164663,q=40
Language : English
Default : Yes
Forced : No

Audio
ID : 2
Format : AC-3
Format/Info : Audio Coding 3
Mode extension : CM (complete main)
Format settings, Endianness : Big
Codec ID : A_AC3
Duration : 1h 54mn
Bit rate mode : Constant
Bit rate : 384 Kbps
Channel(s) : 6 channels
Channel positions : Front: L C R, Side: L R, LFE
Sampling rate : 48.0 KHz
Bit depth : 16 bits
Compression mode : Lossy
Stream size : 314 MiB (21%)
Title : Dub
Language : Russian
Default : Yes
Forced : No

Text
ID : 3
Format : UTF-8
Codec ID : S_TEXT/UTF8
Codec ID/Info : UTF-8 Plain Text
Language : Russian
Default : No
Forced : No

Menu
00:00:00.000 : en:
00:08:33.763 : en:
00:12:59.403 : en:
00:19:42.890 : en:
00:28:30.625 : en:
00:36:19.594 : en:
00:41:24.648 : en:
00:47:24.049 : en:
00:54:21.758 : en:
01:00:19.073 : en:
01:06:46.585 : en:
01:15:04.333 : en:
01:23:11.987
fdcfb06b386b0e61175f3641721e6acd5ac6ed79Папа-Досвидос [Театральная версия] / Thats My Boy [Theatrical Cut] (Шон Андерс, комедия, 2012) [BDRip-AVC, Дубляж, Sub] Папа-Досвидос [Театральная версия] / Thats My Boy [Theatrical Cut] (Шон Андерс, комедия, 2012) [BDRip-AVC, Дубляж, Sub] " />

Аплоадер: Админ, дата: 27-10-2012, 22:02, торрент скачан: 359 раз

Понравилась раздача? Посмотрите эти:
  • Железный Кулак [Театральная версия] / The Man with the Iron Fists [Theatric ...
  • Железный Кулак [Театральная версия] / The Man with the Iron Fists [Theatric ...
  • Заложница 2 [Театральная версия] / Taken 2 [Theatrical Cut] (Оливье Мегатон ...
  • Белоснежка и охотник [Театральная версия] / Snow White and the Huntsman [Th ...
  • Папа-досвидос / Thats My Boy (Шон Андерс, Комедия, 2012) [HDRip, Профессион ...
  • Папа-Досвидос [Расширенная версия] / Thats My Boy [UNRATED] (Шон Андерс, К ...
  • Папа-Досвидос [Расширенная версия] / Thats My Boy [UNRATED] (Шон Андерс, К ...
  • Папа-досвидос / Thats My Boy [Theatrical Cut] (Шон Андерс, комедия, 2012) [ ...
  • Папа-Досвидос [Расширенная версия] / Thats My Boy [UNRATED] (Шон Андерс, Ко ...
  • Папа-досвидос [Расширенная версия] / Thats My Boy [UNRATED] (Шон Андерс, ко ...
  • Папа-досвидос [Расширенная версия] / Thats My Boy [UNRATED] (Шон Андерс, ко ...
  • Папа-Досвидос [Театральная версия] / Thats My Boy [Theatrical Cut] (Шон Анд ...
  • Папа-Досвидос [Театральная версия] / Thats My Boy [Theatrical Cut] (Шон Анд ...
  • Папа-Досвидос [Театральная версия] / Thats My Boy [Theatrical Cut] (Шон Анд ...
  • Папа-Досвидос [Театральная версия] / Thats My Boy [Theatrical Cut] (Шон Анд ...
  • Папа-Досвидос / Thats My Boy (Шон Андерс, Комедия, 2012) [DVD9, Дубляж, Ор ...
  • Белоснежка и охотник [Театральная версия] / Snow White and the Huntsman [Th ...
  • Белоснежка и охотник [Театральная версия] / Snow White and the Huntsman [Th ...
  • Папа-Досвидос [Расширенная версия] / Thats My Boy [UNRATED] (Шон Андерс, К ...
  • Папа-Досвидос [Театральная версия] / Thats My Boy [Theatrical Cut] (Шон Анд ...
  • Папа-Досвидос [Театральная версия] / Thats My Boy [Theatrical Cut] (Шон Анд ...
  • Папа-Досвидос [Театральная версия] / Thats My Boy [Theatrical Cut] (Шон Анд ...
  • Папа-досвидос / Thats My Boy (Шон Андерс / Sean Anders, 2012) [США, комедия ...
  • Папа-досвидос / Thats My Boy [Theatrical Cut] (Шон Андерс, Комедия, 2012) [ ...
  • Папа-досвидос / Thats My Boy [Theatrical Cut] (Шон Андерс, Комедия, 2012) [ ...
  • Информация
    Посетители, находящиеся в группе Гости, не могут оставлять комментарии к данной публикации.