вход на сайт

Имя пользователя :
Пароль :

Восстановление пароля Регистрация
Любовь по правилам и без / Somethings Gotta Give (Нэнси Майерс, комедия, мелодрама, 2003) [DVDRip, Полное дублирование]
Рейтинг:
(голосов: 1)



[img]{THEME}/images/logopost.png[/img]



Любовь по правилам и без / Somethings Gotta Give

Год выпуска: 2003
Страна: США
Производство: Columbia Pictures Corporation
Жанр: комедия, мелодрама

Режиссёр:Нэнси Майерс / Nancy Meyers
В ролях: Джек Николсон (Harry Sanborn), Дайан Китон (Erica Barry), Киану Ривз (Julian Mercer), Фрэнсис МакДорманд (Zoe), Аманда Пит (Marin), Джон Фавро (Leo), Пол Майкл Глейзер (Dave), Рейчел Тикотин (Dr. Martinez), Пейдж Батчер (Beauty), Таня Свит (Beauty), Кристин Забо (Beauty), Дэниэлла Ван Граас (Beauty)

Перевод: Профессиональный (полное дублирование)
Субтитры: Нет

Описание: Пожилой функционер музыкальной индустрии Гарри Лангер питает нежные чувства к молоденькой Марин. Внезапный сердечный удар, приключившийся с Гарри в доме матери его любовницы, Эрики, провоцирует создание любовного треугольника, но с иным раскладом, ибо вызванный для оказания помощи врач, так же, как и его пациент, внезапно влюбляются в Эрику…"Сэмпл" ▼http://files.neolabs.kz/fl/?id=27439
"MEDIAINFO" ▼C:UsersAzatDownloadsrazdavatLubov.po.pravilam.i.bez.2003.avi
General
Complete name : C:UsersAzatDownloadsrazdavatLubov.po.pravilam.i.bez.2003.avi
Format : AVI
Format/Info : Audio Video Interleave
File size : 1.46 GiB
Duration : 2h 3mn
Overall bit rate : 1 691 Kbps
Director : zim2001
Writing application : VirtualDubMod 1.5.10.2 (build 2540/release)
Video #0
ID : 0
Format : MPEG-4 Visual
Format profile : [email protected]
Format settings, BVOP : Yes
Format settings, QPel : No
Format settings, GMC : No warppoints
Format settings, Matrix : Custom
Codec ID : XVID
Codec ID/Hint : XviD
Duration : 2h 3mn
Bit rate : 1 298 Kbps
Width : 688 pixels
Height : 384 pixels
Display aspect ratio : 16:9
Frame rate : 25.000 fps
Resolution : 24 bits
Colorimetry : 4:2:0
Scan type : Progressive
Bits/(Pixel*Frame) : 0.197
Stream size : 1.12 GiB (77%)
Writing library : XviD 56
Audio #1
ID : 1
Format : AC-3
Format/Info : Audio Coding 3
Codec ID : 2000
Duration : 2h 3mn
Bit rate mode : Constant
Bit rate : 384 Kbps
Channel(s) : 6 channels
Channel positions : Front: L C R, Surround: L R, LFE
Sampling rate : 48.0 KHz
Stream size : 338 MiB (23%)
Alignment : Split accross interleaves
Interleave, duration : 40 ms (1.00 video frame)
Interleave, preload duration : 500 ms
Качество: DVDRip
Продолжительность: 02:03:14 час.

Формат: AVI
9f63189ed990c69b685e7ae8e535428d24370756Любовь по правилам и без / Somethings Gotta Give (Нэнси Майерс, комедия, мелодрама, 2003) [DVDRip, Полное дублирование] Любовь по правилам и без / Somethings Gotta Give (Нэнси Майерс, комедия, мелодрама, 2003) [DVDRip, Полное дублирование] " />

Аплоадер: Админ, дата: 14-10-2012, 13:34, торрент скачан: 359 раз

Понравилась раздача? Посмотрите эти:
  • Мужество / Wymyk (Грег Зглински, драма, 2011) [DVDRip, Любительский (одного ...
  • Любовь по правилам и без / Somethings Gotta Give (Нэнси Мейерс, мелодрама, ...
  • Прощание в июне (Сергей Ломкин, Мелодрама, комедия, 2003) [DVDRip, Не требу ...
  • Любовь по-взрослому / This Is 40 (Джудд Апатоу, Комедия, 2012) [HDRip,Профе ...
  • 100 девчонок и одна в лифте / 100 Girls (Майкл Дэвис, Мелодрама, Комедия, 2 ...
  • Любовь на кончиках пальцев / Populaire (Режис Ройнсар, Мелодрама, комедия, ...
  • Мужчина нарасхват / Playing for Keeps (Габриэле Муччино, Мелодрама, комедия ...
  • Кот / Кот в шляпе / The Cat in the Hat (Бо Уэлш, фэнтези, комедия, приключ ...
  • Весенние надежды / Hope Springs (Дэвид Фрэнкел, Драма, мелодрама, комедия, ...
  • Экипаж / Flight (Роберт Земекис, Драма, 2012) [BDRip, Профессиональный (пол ...
  • В доме / Dans la maison (Франсуа Озон, Триллер, детектив, 2012) [HDRip, Про ...
  • Любовь по правилам и без / Somethings Gotta Give (Кеану Ривз, 2003 г, Коме ...
  • Любовь по правилам и без / Somethings Gotta Give (Нэнси Майерс, Джек Николс ...
  • Плохая актриса / Bad Actress (Роберт Ли Кинг, комедия, 2011) [DVDRip, Профе ...
  • Простые сложности / Its Complicated (Нэнси Мейерс, комедия, мелодрама, 2009 ...
  • Папа-досвидос / Thats My Boy (Шон Андерс, Комедия, 2012) [HDRip, Профессион ...
  • Дом вверх дном / Bringing Down the House (Адам Шенкман, комедия, 2003) [BDR ...
  • Влюбленные (Валерий Бебко, Комедия, 2011) [DVDRip, Оригинал]
  • Вид сверху лучше / View from the Top (Бруно Баррето, комедия, мелодрама, 20 ...
  • Голова в облаках / Head in the Clouds (Джон Дайган, мелодрама, 2004) [HDRip ...
  • Инкубус / Inkubus (Гленн Чиано, Ужасы, 2011) [DVDRip, Профессиональный (мно ...
  • Темнота наступает / Darkness Falls (Джонатан Либесман, ужасы, триллер, 2003 ...
  • Девушки в опасности / Damsels in Distress (Уит Стиллман, драма, мелодрама, ...
  • Мемуары гейши / Memoirs of a Geisha (Роб Маршалл, драма, мелодрама, 2005) [ ...
  • Рука-убийца / Idle Hands (Родмен Флендер,ужасы, триллер, комедия, 1999) [HD ...
  • Информация
    Посетители, находящиеся в группе Гости, не могут оставлять комментарии к данной публикации.