вход на сайт

Имя пользователя :
Пароль :

Восстановление пароля Регистрация
Папа-досвидос / Thats My Boy (Шон Андерс, Комедия, 2012) [HDRip, Профессиональный (полное дублирование) + Оригинал (английский).]
Рейтинг:
(голосов: 1)



[img]{THEME}/images/logopost.png[/img]



Папа-досвидос / Thats My Boy
«Пиво и другие семейные ценности»
Год выпуска: 2012
Страна: США
Производство: Columbia Pictures
Жанр:комедия
Режиссёр: Шон Андерс
В ролях: Адам Сэндлер, Энди Сэмберг, Лейтон Мистер, Майло Вентимилья, Ванилла Айс, Пегги Стюарт, Блейк Кларк, Меган Фэй, Тони Орландо, Джеймс Каан
Перевод: Профессиональный (полное дублирование)+ Оригинал (английский).
Субтитры: Нет
Описание:Переспав с «очень плохой училкой» прямо в школе, тинейджер становится отцом «по залету», а его зрелая пассия попадает в тюрьму за совращение малолетнего. Теперь юный папа-одиночка вынужден заботиться о сыне до его совершеннолетия, а затем благополучно исчезает в неизвестном направлении. И вот, много лет спустя, оказавшись на мели, эксцентричный папаша-инфантил словно ураган врывается в жизнь сына накануне его свадьбы и своими безумными выходками переворачивает всё вверх дном.



Качество: HDRip
Продолжительность: 01:56:21
Формат: AVI
Видео кодек:XviD
Аудио кодек:AС3
Видео: 720x304 (2.37:1), 23.976 fps, XviD build 50 ~1768 kbps avg, 0.34 bit/pixel
Аудио 1: 48 kHz, AC3 Dolby Digital, 3/2 (L,C,R,l,r) + LFE ch, ~384 kbps [Russian]
Аудио 2: 48 kHz, AC3 Dolby Digital, 3/2 (L,C,R,l,r) + LFE ch, ~384 kbps [English]

♦ Дата премьеры (мир): 4 июня 2012
♦ Дата премьеры (РФ): 19 июля 2012, «WDSSPR»
"MediaInfo:" ▼TextD:КиноPapa.dosvidos.2012.D.HDRip.2100Mb.avi
General
Complete name : D:КиноPapa.dosvidos.2012.D.HDRip.2100Mb.avi
Format : AVI
Format/Info : Audio Video Interleave
Format profile : OpenDML
File size : 2.06 GiB
Duration : 1h 56mn
Overall bit rate : 2 543 Kbps
Writing application : VirtualDubMod 1.5.10.2 (build 2540/release)
Writing library : VirtualDubMod build 2540/release
Video #0
ID : 0
Format : MPEG-4 Visual
Format profile : Advanced [email protected]
Format settings, BVOP : Yes
Format settings, QPel : No
Format settings, GMC : No warppoints
Format settings, Matrix : Default (MPEG)
Codec ID : XVID
Codec ID/Hint : XviD
Duration : 1h 56mn
Bit rate : 1 757 Kbps
Width : 720 pixels
Height : 304 pixels
Display aspect ratio : 2.35:1
Frame rate : 23.976 fps
Color space : YUV
Chroma subsampling : 4:2:0
Bit depth : 8 bits
Scan type : Progressive
Compression mode : Lossy
Bits/(Pixel*Frame) : 0.335
Stream size : 1.42 GiB (69%)
Writing library : XviD 1.2.1 (UTC 2008-12-04)
Audio #1
ID : 1
Format : AC-3
Format/Info : Audio Coding 3
Mode extension : CM (complete main)
Codec ID : 2000
Duration : 1h 56mn
Bit rate mode : Constant
Bit rate : 384 Kbps
Channel(s) : 6 channels
Channel positions : Front: L C R, Side: L R, LFE
Sampling rate : 48.0 KHz
Bit depth : 16 bits
Compression mode : Lossy
Stream size : 319 MiB (15%)
Alignment : Split accross interleaves
Interleave, duration : 42 ms (1.00 video frame)
Interleave, preload duration : 500 ms
Audio #2
ID : 2
Format : AC-3
Format/I
58c1f64b83a51afb13818df4b4a9c2f4ea16a6a5Папа-досвидос / Thats My Boy (Шон Андерс, Комедия, 2012) [HDRip, Профессиональный (полное дублирование) + Оригинал (английский).] Папа-досвидос / Thats My Boy (Шон Андерс, Комедия, 2012) [HDRip, Профессиональный (полное дублирование) + Оригинал (английский).] " />

Аплоадер: Админ, дата: 10-10-2012, 14:41, торрент скачан: 359 раз

Понравилась раздача? Посмотрите эти:
  • Верное дельце / Une pure affaire (Александр Коффре, Боевик, Комедия, Кримин ...
  • Мои герои / Mes heros (Эрик Беснард, комедия, 2012) [HDRip, Профессиональны ...
  • Покорители Волн / Chasing Mavericks (Майкл Эптед, Кёртис Хэнсон, Драма, спо ...
  • Папа-Досвидос [Расширенная версия] / Thats My Boy [UNRATED] (Шон Андерс, К ...
  • Папа-Досвидос [Расширенная версия] / Thats My Boy [UNRATED] (Шон Андерс, К ...
  • Папа-досвидос / Thats My Boy [Theatrical Cut] (Шон Андерс, комедия, 2012) [ ...
  • Папа-Досвидос [Расширенная версия] / Thats My Boy [UNRATED] (Шон Андерс, Ко ...
  • Папа-Досвидос [Театральная версия] / Thats My Boy [Theatrical Cut] (Шон Анд ...
  • Папа-Досвидос [Театральная версия] / Thats My Boy [Theatrical Cut] (Шон Анд ...
  • Папа-Досвидос [Театральная версия] / Thats My Boy [Theatrical Cut] (Шон Анд ...
  • Папа-Досвидос [Театральная версия] / Thats My Boy [Theatrical Cut] (Шон Анд ...
  • Папа-Досвидос [Расширенная версия] / Thats My Boy [UNRATED] (Шон Андерс, К ...
  • Папа-Досвидос [Театральная версия] / Thats My Boy [Theatrical Cut] (Шон Анд ...
  • Папа-Досвидос [Театральная версия] / Thats My Boy [Theatrical Cut] (Шон Анд ...
  • Чемпионат Европы 2012 / Группа D / 1-й тур / Украина - Швеция / Спорт 1 [11 ...
  • Tank Feat. T.I. & Kris Stephens / Compliments [2012, RnB,Hip-Hop, HDRip]
  • Папа-досвидос / Thats My Boy (Шон Андерс / Sean Anders, 2012) [США, комедия ...
  • Папа-досвидос / Thats My Boy [Theatrical Cut] (Шон Андерс, Комедия, 2012) [ ...
  • Папа-досвидос / Thats My Boy [Theatrical Cut] (Шон Андерс, Комедия, 2012) [ ...
  • Супершторм в Сиэтле / Seattle Superstorm (Джейсон Бурк, фантастика, боевик ...
  • Информация
    Посетители, находящиеся в группе Гости, не могут оставлять комментарии к данной публикации.