вход на сайт

Имя пользователя :
Пароль :

Восстановление пароля Регистрация
Типа крутые спартанцы / The Legend of Awesomest Maximus (Джеф Кэнью, Комедия, 2011) [HDRip-AVC, Профессиональный (многоголосый закадровый), Sub]
Рейтинг:
(голосов: 1)



[img]{THEME}/images/logopost.png[/img]



Типа крутые спартанцы / The Legend of Awesomest Maximus
«Epic? Fail? You decide.»


Год выпуска: 2011
Страна: США
Производство: Farah Films & Management, National Lampoon Productions, Vision Entertainment
Жанр: Комедия

Режиссёр: Джеф Кэнью
В ролях:Уилл Сассо, Тони Кокс, Кристанна Локен, Рип Торн, Йен Зиринг, Адам Дивайн, Расселл Питерс, Софи Монк, Дион Ри*censored*нд, Дэннис Хэскинс...

Перевод: Профессиональный (многоголосый закадровый)
Субтитры: Russian

Описание: Сюжет картины рассказывает о храбром генерале Овезоместе Максимусе, которому Король Трои приказывает сопровождать принца Орландо в Грецию, чтобы уладить назревающий конфликт с тамошним правителем. В гостях у неприятеля принц Орландо встречает красавицу принцессу Эллен, и увозит ее с собой, обратно в Трою. Разгневанный греческий царь собирает огромную армию в миллион человек и идет войной на Трою. В ответ отважный Овезомест Максимус призывает на помощь 300 спартанцев..Качество: HDRip-AVC
Продолжительность: 01:30:53 час.


Формат: MKV
Видео кодек: x264
Аудио кодек: AC3
Видео: 1024x576 (16:9), 23.976 fps, x264 ~ 1907 kbps avg, 0.135 bit/pixel
Аудио:48 kHz, AC3 Dolby Digital, 3/2 (L,C,R,l,r) + LFE ch, ~384.00 kbps avg

Дата премьеры (мир): 5 августа 2011

MediaInfo ▼Общее
Полное имя : Tipa.krutye.spartantsy.2011.P.HDRip-AVC_by_AVP Studio.mkv
Формат : Matroska
Версия формата : Version 2
Размер файла : 1,45 Гбайт
Продолжительность : 1 ч. 30 м.
Общий поток : 2290 Кбит/сек
Название фильма : Tipa.krutye.spartantsy.2011.P.HDRip-AVC_by_AVP Studio
Дата кодирования : UTC 2012-08-31 11:44:50
Программа кодирования : mkvmerge v5.7.0 (The Whirlwind) built on Jul 8 2012 20:08:51
Библиотека кодирования : libebml v1.2.3 + libmatroska v1.3.0

Видео
Идентификатор : 1
Формат : AVC
Формат/Информация : Advanced Video Codec
Профиль формата : [email protected]
Параметр CABAC формата : Да
Параметр ReFrames формата : 11 кадров
Идентификатор кодека : V_MPEG4/ISO/AVC
Продолжительность : 1 ч. 30 м.
Битрейт : 1907 Кбит/сек
Ширина : 1024 пикселя
Высота : 576 пикселей
Соотношение сторон : 16:9
Частота кадров : 23,976 кадра/сек
Цветовое пространство : YUV
Субдискретизация насыщенности : 4:2:0
Битовая глубина : 8 бит
Тип развёртки : Прогрессивная
Бит/(Пиксели*Кадры) : 0.135
Размер потока : 1,18 Гбайт (81%)
Заголовок : Источник BDRip 1080p
Библиотека кодирования : x264 core 119 r2106 07efeb4
Настройки программы : cabac=1 / ref=11 / deblock=1:-2:-1 / analyse=0x3:0x113 / me=umh / subme=9 / psy=1 / psy_rd=1.00:0.10 / mixed_ref=1 / me_range=32 / chroma_me=1 / trellis=1 / 8x8dct=1 / cqm=0 / deadzone=21,11 / fast_pskip=0 / chroma_qp_offset=-3 / threads=3 / sliced_threads=0 / nr=0 / decimate=1 / interlaced=0 / bluray_compat=0 / constrained_intra=0 / bframes=10 / b_pyramid=2 / b_adapt=1 / b_bias=0 / direct=3 / weightb=1 / open_gop=0 / weightp=2 / keyint=240 / keyint_min=23 / scenecut=40 / intra_refresh=0 / rc_lookahead=60 / rc=2pass / mbtree=1 / bitrate=1907 / ratetol=1.0 / qcomp=0.60 / qpmin=0 / qpmax=69 / qpstep=4 / cplxblur=20.0 / qblur=0.5 / ip_ratio=1.40 / aq=1:1.00
Язык : English
Default : Да
Forced : Нет

Аудио
Идентификатор : 2
Формат : AC-3
Формат/Информация : Audio Coding 3
Расширение режима : CM (complete main)
Идентификатор кодека : A_AC3
Продолжительность : 1 ч. 30 м.
Вид битрейта : Постоянный
Битрейт : 384 Кбит/сек
Каналы : 6 каналов
Расположение каналов : Front: L C R, Side: L R, LFE
Частота : 48,0 КГц
Битовая глубина : 16 бит
Метод сжатия : С потерями
Размер потока : 250 Мбайт (17%)
Заголовок : Источник DVD
Язык : Russian
Default : Да
Forced : Нет

Текст
Идентификатор : 3
Формат : UTF-8
Идентификатор кодека : S_TEXT/UTF8
Идентификатор кодека/Информация : UTF-8 Plain Text
Заголовок : Источник DVD
Язык : Russian
Default : Нет
Forced : Нет

Меню
00:00:00.000 : ru:00:00:00.000000000
00:05:00.000 : :00:05:00.000000000
00:10:00.000 : :00:10:00.000000000
00:15:00.000 : :00:15:00.000000000
00:20
20d7ead3ab0d5072596e2054e15202dd03fa9129Типа крутые спартанцы / The Legend of Awesomest Maximus (Джеф Кэнью, Комедия, 2011) [HDRip-AVC, Профессиональный (многоголосый закадровый), Sub] Типа крутые спартанцы / The Legend of Awesomest Maximus (Джеф Кэнью, Комедия, 2011) [HDRip-AVC, Профессиональный (многоголосый закадровый), Sub] " />

Аплоадер: Админ, дата: 31-08-2012, 20:52, торрент скачан: 359 раз

Понравилась раздача? Посмотрите эти:
  • Бунраку / Bunraku (Гай Моше, боевик, триллер, драма, 2010) [BDRip-AVC, Проф ...
  • Рикошет / Ricochet (Ник Гомез, драма, детектив, 2011) [BDRip-AVC, Профессио ...
  • Клин клином / Fire with Fire (Дэвид Баррет, боевик, триллер, криминал, 2012 ...
  • Брат якудзы / Brother (Такеши Китано, триллер, драма, криминал, 2000) [HDRi ...
  • Суррогат / The Sessions (Бен Луин, Драма, 2012) [BDRip-AVC, Профессиональны ...
  • Белый слон / Elephant White (Прачья Пинкаю, боевик, триллер, криминал, 2011 ...
  • Восстание планеты обезьян/ Planet of the Apes(Руперт Уайатт,Фантастика,Прик ...
  • Совсем не бабник / Cedar Rapids (Мигель Артета, комедия, 2011) [BDRip-AVC, ...
  • Начинающие / Beginners (Майк Миллс / Mike Mills, драма, мелодрама, комедия, ...
  • Главное - не бояться! / A Little Bit of Heaven (Николь Кэссел / Nicole Kass ...
  • Погоня / Abduction (Джон Синглтон, боевик, триллер, драма, детектив, 2011) ...
  • Челюсти 3D / Shark Night 3D ( Дэвид Р. Эллис, ужасы, 2011) [BDRip-AVC, Проф ...
  • Иностранный легион / La cité (Ким Нгуйен / Kim Nguyen, драма, 2010) [DVDRip ...
  • Драйв / Drive (Николас Виндинг Рёфн, боевик, триллер, драма, криминал, 2011 ...
  • Зеркала 2 / Mirrors 2 (Виктор Гарсия / Víctor García, ужасы, триллер, детек ...
  • Переростки / The Inbetweeners (Бен Палмер, Комедия, 2011) [BDRip-AVC, Профе ...
  • Последний неандерталец / Ao, le dernier Néandertal (Жак Малатье, приключени ...
  • Финишная прямая / La ligne droite (Режис Варнье, драма, спорт, 2011) [HDRip ...
  • Тонкий Лед / The Convincer (Джилл Шпрехер, Драма, комедия, криминал, 2011) ...
  • Типа крутые спартанцы / The Legend of Awesomest Maximus (Джеф Кэнью, Комеди ...
  • Судный день / The Day (Дуглас Арниокоски, фантастика, триллер, драма, 2011) ...
  • Эд Вуд / Ed Wood (Тим Бёртон, драма, комедия, биография, 1994) [BDRip-AVC, ...
  • Павшая империя / Hirokin (Алехо Мо-Сан, фантастика, боевик, драма, приключе ...
  • Типа крутые спартанцы / The Legend of Awesomest Maximus (Джеф Кэнью, Комеди ...
  • Типа крутые спартанцы / The Legend of Awesomest Maximus (Джеф Кэнью, Комеди ...
  • Информация
    Посетители, находящиеся в группе Гости, не могут оставлять комментарии к данной публикации.