вход на сайт

Имя пользователя :
Пароль :

Восстановление пароля Регистрация
Американский пирог: Все в сборе / American Reunion (Джон Харвитц, Хейден Шлоссберг, Комедия, 2012) [BDRip-AVC, Дубляж, Оригинал, Sub]
Рейтинг:
(голосов: 1)



[img]{THEME}/images/logopost.png[/img]



Американский пирог: Все в сборе/ American Reunion

Год выпуска: 2012
Страна: США
Производство: Universal Pictures
Жанр: Комедия

Режиссёр: Джон Харвитц, Хейден Шлоссберг
В ролях: Джейсон Биггз, Элисон Хэннигэн, Крис Клейн, Томас Иэн Николас, Тара Рид, Шонн Уильям Скотт, Мена Сувари, Эдди Кэй Томас, Джон Чо, Дженнифер Кулидж.

Перевод: Дубляж, Оригинал
Субтитры: Русские (форс. + полные), Английские |.srt|

Описание: Герои «Американского пирога» встречаются вновь спустя несколько лет. Они докажут, что даже время и расстояние не в силах разрушить их дружбу. Летом 1999-го четверо мичиганских парней решили расстаться с невинностью. Прошли годы, и теперь друзья вернулись домой уже повзрослевшими, чтобы вспомнить прошлое и оторваться на полную катушку.

Качество: BDRip-AVC
Продолжительность: 01:52:52 час.


Формат: MKV
Видео кодек: x264
Аудио кодек:AC3
Видео: 1056 x 572 ( 1,85:1), 23.976 fps, x264 ~2 868 kbps avg, 0.198 bit/pixel
Аудио#1: 48 kHz, AC3 Dolby Digital, 3/2 (L,C,R,l,r) + LFE ch, ~384 kbps avg- (Russian)
Аудио#2: 48 kHz, AC3 Dolby Digital, 3/2 (L,C,R,l,r) + LFE ch, ~384 kbps avg- (English)


Дата премьеры (мир): 4 апреля 2012
Дата премьеры (РФ): 5 апреля 2012, «UPI»

MediaInfo ▼Общее
Уникальный идентификатор : 214398184479973250120090470325057888937 (0xA14B969E2F914DE283891826E7EA22A9)
Полное имя : E:CinemaAmerikanskii.Pirog.Vse.V.Sbore.2012.DUAL.BDRip-AVC.AC3.-HQ-ViDEO.mkv
Формат : Matroska
Версия формата : Version 2
Размер файла : 2,92 Гбайт
Продолжительность : 1 ч. 52 м.
Общий поток : 3710 Кбит/сек
Название фильма : American Reunion (2012) - HQ-ViDEO
Дата кодирования : UTC 2012-08-09 15:58:25
Программа кодирования : mkvmerge v5.7.0 (The Whirlwind) built on Jul 8 2012 20:08:51
Библиотека кодирования : libebml v1.2.3 + libmatroska v1.3.0

Видео
Идентификатор : 1
Формат : AVC
Формат/Информация : Advanced Video Codec
Профиль формата : [email protected]
Параметр CABAC формата : Да
Параметр ReFrames формата : 7 кадров
Идентификатор кодека : V_MPEG4/ISO/AVC
Продолжительность : 1 ч. 52 м.
Битрейт : 2868 Кбит/сек
Ширина : 1056 пикселей
Высота : 572 пикселя
Соотношение сторон : 1,85:1
Режим частоты кадров : Постоянный
Частота кадров : 23,976 кадра/сек
Цветовое пространство : YUV
Субдискретизация насыщенности : 4:2:0
Битовая глубина : 8 бит
Тип развёртки : Прогрессивная
Бит/(Пиксели*Кадры) : 0.198
Размер потока : 2,26 Гбайт (77%)
Заголовок : Vaippp
Библиотека кодирования : x264 core 125 r2200 999b753
Настройки программы : cabac=1 / ref=7 / deblock=1:-2:-2 / analyse=0x3:0x133 / me=umh / subme=10 / psy=1 / psy_rd=0.95:0.05 / mixed_ref=1 / me_range=64 / chroma_me=1 / trellis=2 / 8x8dct=1 / cqm=0 / deadzone=21,11 / fast_pskip=1 / chroma_qp_offset=-3 / threads=12 / lookahead_threads=2 / sliced_threads=0 / nr=0 / decimate=1 / interlaced=0 / bluray_compat=0 / constrained_intra=0 / bframes=12 / b_pyramid=2 / b_adapt=2 / b_bias=0 / direct=1 / weightb=1 / open_gop=0 / weightp=2 / keyint=240 / keyint_min=22 / scenecut=40 / intra_refresh=0 / rc_lookahead=60 / rc=crf / mbtree=0 / crf=20.2 / qcomp=0.70 / qpmin=0 / qpmax=40 / qpstep=4 / vbv_maxrate=50000 / vbv_bufsize=62500 / crf_max=0.0 / nal_hrd=none / ip_ratio=1.30 / pb_ratio=1.20 / aq=1:0.75
Язык : English
Default : Да
Forced : Нет
Основные цвета : BT.709
Характеристики трансфера : BT.709
Коэффициенты матрицы : BT.709

Аудио #1
Идентификатор : 2
Формат : AC-3
Формат/Информация : Audio Coding 3
Расширение режима : CM (complete main)
Параметр Endianness формата : Big
Идентификатор кодека : A_AC3
Продолжительность : 1 ч. 52 м.
Вид битрейта : Постоянный
Битрейт : 384 Кбит/сек
Каналы : 6 каналов
Расположение каналов : Front: L C R, Side: L R, LFE
Частота : 48,0 КГц
Битовая глубина : 16 бит
Метод сжатия : С потерями
Размер потока : 310 Мбайт (10%)
Заголовок : [email protected]
Язык : Russian
fff814e5d7a126902bf13ba1b9c696efc65140b7Американский пирог: Все в сборе / American Reunion (Джон Харвитц, Хейден Шлоссберг, Комедия, 2012) [BDRip-AVC, Дубляж, Оригинал, Sub] Американский пирог: Все в сборе / American Reunion (Джон Харвитц, Хейден Шлоссберг, Комедия, 2012) [BDRip-AVC, Дубляж, Оригинал, Sub] " />

Аплоадер: Админ, дата: 10-08-2012, 02:09, торрент скачан: 359 раз

Понравилась раздача? Посмотрите эти:
  • Стукач / Snitch (Рик Роман Во, Триллер, драма, 2013) [BDRip-AVC, Дубляж, Ор ...
  • Никто не выжил / No One Lives (Рюхэй Китамура, Триллер, ужасы, 2012) [BDRip ...
  • 21 и больше / 21 & Over (Джон Лукас, Скотт Мур, Комедия, 2013) [BDRip-AVC, ...
  • Американский пирог: Все в сборе [Расширенная версия] / American Reunion [Un ...
  • Толстяк на ринге / Here Comes the Boom (Фрэнк Корачи, Боевик, комедия, 2012 ...
  • Американский пирог: Все в сборе [Расширенная версия] / American Reunion [UN ...
  • Американский пирог: Все в сборе / American Reunion (Джон Харвитц, Хейден Шл ...
  • Ищу друга на конец света / Seeking a Friend for the End of the World (Лорен ...
  • Третий лишний / Ted (Сет МакФарлейн, Фэнтези, комедия, 2012) [BDRip-AVC, Ду ...
  • Эд Вуд / Ed Wood (Тим Бёртон, драма, комедия, биография, 1994) [BDRip-AVC, ...
  • Американский пирог: Все в сборе / American Reunion (Джон Харвитц, Хейден Шл ...
  • Американский пирог: Все в сборе / American Reunion (Джон Харвитц, Хейден Шл ...
  • Американский пирог: Все в сборе / American Reunion (Джон Харвитц, Комедия, ...
  • Американский пирог: Все в сборе [Расширенная версия] / American Reunion [UN ...
  • Американский пирог: Все в сборе [Расширенная версия] / American Reunion [UN ...
  • Американский пирог: Все в сборе / American Reunion (Джон Харвитц, Хейден Ш ...
  • Американский пирог: Все в сборе / American Reunion (Джон Харвитц, Хейден Шл ...
  • Американский пирог: Все в сборе / American Reunion (Джон Харвитц, Хейден Шл ...
  • Американский пирог: Все в сборе / American Reunion (Джон Харвитц, Хейден Ш ...
  • Американский пирог: Все в сборе [Расширенная версия] / American Reunion [UN ...
  • Информация
    Посетители, находящиеся в группе Гости, не могут оставлять комментарии к данной публикации.